×
Реклама
Присоединяйся
ТОП Пользователей
Реклама видна только незарегистрированным пользователям. Зарегистрироваться.
Барбоскины: Первое место + Лучший подарок + Настоящий парень + Розыгрыш [01-60 из 60] (2011-2012) DVDRip-AVC от Youtracker
18-09-2012, 15:44
Alexey 0 1 226
Барбоскины: Первое место + Лучший подарок + Настоящий парень + Розыгрыш [01-60 из 60] (2011-2012) DVDRip-AVC от Youtracker
Страна: Россия
Год выпуска: 2011-2012

Жанр: мультфильм, детский
Продолжительность: 60 серий ~ 5 минут

Оригинальная аудиодорожка: Русский
Субтитры: нет

Режиссер: Екатерина Салабай

Описание: Мама, папа и… пятеро щенят. У Барбоскиных все, как у людей. Папа свободное время проводит за компьютером, дочери увлекаются модой и слушают Жанну Киску, а сыновья играют в футбол и мечтают о Нобелевской премии.....

Исходник: DVD5 R5
Тип релиза: DVDRip-AVC
Контейнер: MKV

Видео: 720x576@768х576, 688х574@768x574 (4:3), 25 fps, H264 ~ 2318 kbps avg, 0.224 bit/pixel
Аудио: 48 kHz, АС3, 2 ch, 192.00 kbps

Раздача от: 
MediaInfo

MediaInfo для 688х574
Общее
Полное имя : Barboskiny.2011.DVDRip-AVC_[YouTracker]_by_AVP_StudioВыпуск 414.mkv
Формат : Matroska
Версия формата : Version 2
Размер файла : 99,8 Мбайт
Продолжительность : 5 м. 36 с.
Общий поток : 2491 Кбит/сек
Дата кодирования : UTC 2012-09-17 20:06:39
Программа кодирования : mkvmerge v5.8.0 ('No Sleep / Pillow') built on Sep 2 2012 15:37:04
Библиотека кодирования : libebml v1.2.3 + libmatroska v1.3.0

Видео
Идентификатор : 1
Формат : AVC
Формат/Информация : Advanced Video Codec
Профиль формата : High@L4.1
Параметр CABAC формата : Да
Параметр ReFrames формата : 11 кадров
Идентификатор кодека : V_MPEG4/ISO/AVC
Продолжительность : 5 м. 36 с.
Битрейт : 2297 Кбит/сек
Ширина : 688 пикселей
Высота : 574 пикселя
Соотношение сторон : 1,199
Частота кадров : 25,000 кадров/сек
Цветовое пространство : YUV
Субдискретизация насыщенности : 4:2:0
Битовая глубина : 8 бит
Тип развёртки : Прогрессивная
Бит/(Пиксели*Кадры) : 0.233
Размер потока : 90,1 Мбайт (90%)
Библиотека кодирования : x264 core 119 r2106 07efeb4
Настройки программы : cabac=1 / ref=11 / deblock=1:-2:-1 / analyse=0x3:0x113 / me=umh / subme=9 / psy=1 / psy_rd=1.00:0.20 / mixed_ref=1 / me_range=32 / chroma_me=1 / trellis=1 / 8x8dct=1 / cqm=0 / deadzone=21,11 / fast_pskip=0 / chroma_qp_offset=-3 / threads=6 / sliced_threads=0 / nr=0 / decimate=0 / interlaced=0 / bluray_compat=0 / constrained_intra=0 / bframes=8 / b_pyramid=2 / b_adapt=2 / b_bias=0 / direct=3 / weightb=1 / open_gop=0 / weightp=2 / keyint=250 / keyint_min=25 / scenecut=40 / intra_refresh=0 / rc_lookahead=60 / rc=2pass / mbtree=1 / bitrate=2297 / ratetol=1.0 / qcomp=0.60 / qpmin=0 / qpmax=69 / qpstep=4 / cplxblur=20.0 / qblur=0.5 / ip_ratio=1.40 / aq=1:1.00
Язык : English
Default : Да
Forced : Нет

Аудио
Идентификатор : 2
Формат : AC-3
Формат/Информация : Audio Coding 3
Расширение режима : CM (complete main)
Идентификатор кодека : A_AC3
Продолжительность : 5 м. 36 с.
Вид битрейта : Постоянный
Битрейт : 192 Кбит/сек
Каналы : 2 канала
Расположение каналов : Front: L R
Частота : 48,0 КГц
Битовая глубина : 16 бит
Метод сжатия : С потерями
Размер потока : 7,69 Мбайт (8%)
Default : Да
Forced : Нет

MediaInfo для 720х576
Общее
Полное имя : Barboskiny.2011.DVDRip-AVC_[YouTracker]_by_AVP_StudioВыпуск 1�2.mkv
Формат : Matroska
Версия формата : Version 2
Размер файла : 98,4 Мбайт
Продолжительность : 5 м. 28 с.
Общий поток : 2511 Кбит/сек
Дата кодирования : UTC 2012-02-05 10:21:48
Программа кодирования : mkvmerge v5.0.1 ('Es ist Sommer') built on Nov 6 2011 16:23:40
Библиотека кодирования : libebml v1.2.2 + libmatroska v1.3.0

Видео
Идентификатор : 1
Формат : AVC
Формат/Информация : Advanced Video Codec
Профиль формата : High@L4.1
Параметр CABAC формата : Да
Параметр ReFrames формата : 6 кадров
Идентификатор кодека : V_MPEG4/ISO/AVC
Продолжительность : 5 м. 28 с.
Битрейт : 2315 Кбит/сек
Ширина : 720 пикселей
Высота : 576 пикселей
Соотношение сторон : 1,300
Соотношение сторон в оригинале : 4:3
Частота кадров : 25,000 кадров/сек
Стандарт вещания : PAL
Цветовое пространство : YUV
Субдискретизация насыщенности : 4:2:0
Битовая глубина : 8 бит
Тип развёртки : Прогрессивная
Бит/(Пиксели*Кадры) : 0.223
Размер потока : 88,9 Мбайт (90%)
Библиотека кодирования : x264 core 119 r2106 07efeb4
Настройки программы : cabac=1 / ref=6 / deblock=1:-2:-1 / analyse=0x3:0x113 / me=umh / subme=6 / psy=1 / psy_rd=1.00:0.10 / mixed_ref=1 / me_range=32 / chroma_me=1 / trellis=1 / 8x8dct=1 / cqm=0 / deadzone=21,11 / fast_pskip=1 / chroma_qp_offset=-3 / threads=3 / sliced_threads=0 / nr=0 / decimate=1 / interlaced=0 / bluray_compat=0 / constrained_intra=0 / bframes=6 / b_pyramid=2 / b_adapt=1 / b_bias=0 / direct=3 / weightb=1 / open_gop=0 / weightp=0 / keyint=250 / keyint_min=25 / scenecut=40 / intra_refresh=0 / rc_lookahead=60 / rc=2pass / mbtree=1 / bitrate=2315 / ratetol=1.0 / qcomp=0.60 / qpmin=0 / qpmax=69 / qpstep=4 / cplxblur=20.0 / qblur=0.5 / ip_ratio=1.40 / aq=1:1.00
Default : Да
Forced : Нет

Аудио
Идентификатор : 2
Формат : AC-3
Формат/Информация : Audio Coding 3
Расширение режима : CM (complete main)
Идентификатор кодека : A_AC3
Продолжительность : 5 м. 28 с.
Вид битрейта : Постоянный
Битрейт : 192 Кбит/сек
Каналы : 2 канала
Расположение каналов : Front: L R
Частота : 48,0 КГц
Битовая глубина : 16 бит
Метод сжатия : С потерями
Размер потока : 7,53 Мбайт (8%)
Default : Да
Forced : Нет

Список серий

01. Пчёлка
02. Опять двойка
03. Межгалактическое сообщество
04. Матч
05. Тест на прочность
06. Перевоспитатели
07. Развитие таланта
08. Спокойной ночи
09. Нобелевская премия
10. Миротворец
11. Первое место
12. Незаменимый Дружок
13. Гончий пес
14. Кто красивее
15. Во всём виноват зайка
16. Шнурок
17. Право голоса
18. Лучший подарок
19. Ку-ка-ре-ку
20. Пульт
21. Игры разума
22. Держи себя в руках
23. Побочный эффект
24. Самый лучший
25. Конфетка Правды
26. Колыбельная для дружка
27. Рыжая
28. Шкатулка с секретом
29. Совсем как Жанна Киска
30. Ночь независимости
31. Триумф силы воли
32. Заместитель джина
33. Вечные ценности
34. Сладкий закон
35. Шито-крыто
36. Суперпапа
37. Атака клонов
38. Фото на память
39. Звезда
40. Настоящий парень
41. Все за карточку
42. Квартирный вопрос
43. Театр
44. Улыбка фортуны
45. По-взрослому
46. Принц
47. Пропеллер
48. Сама невинность
49. Опыт общения
50. Безотказный
51. Розыгрыш
52. Ни капельки не страшно
53. Мнение окружающих
54. Срочный ремонт
55. Вознаграждение
56. Двойной дружок
57. Военная тайна
58. Зеленый гоблин
59. Сальмаганди
60. Как стать Львом Яшей

Обложка и блин

http://www.mediafire.com/?rej1t3uwugvo23a
        


Рейтинг: 4.3/5 | Оценок: 3
ПОДЕЛИТЬСЯ
Реклама
Реклама
Рекомендуем к прочтению
Информация:
Уважаемый посетитель, Вы зашли на сайт как незарегистрированный пользователь.
Мы рекомендуем Вам зарегистрироваться либо войти на сайт под своим именем.
Всего комментариев: 0
Информация
Посетители, находящиеся в группе Гости, не могут оставлять комментарии к данной публикации.