×
Реклама
Присоединяйся
ТОП Пользователей
Реклама видна только незарегистрированным пользователям. Зарегистрироваться.
Мрачные тени / Dark Shadows (2012) BDRip 1080p от FREEISLAND
5-09-2012, 10:50
Alexey 0 1 905
Мрачные тени / Dark Shadows (2012) BDRip 1080p от FREEISLAND
Информация о фильме
Название: Мрачные тени
Оригинальное название: Dark Shadows
Год выхода: 2012
Жанр: фэнтези, мелодрама, комедия
Режиссер: Тим Бёртон

          
          
Джонни Депп (Barnabas Collins), Мишель Пфайффер (Elizabeth Collins Stoddard), Хелена Бонем Картер (Dr. Julia Hoffman), Ева Грин (Angelique Bouchard), Джеки Эрл Хейли (Willie Loomis), Джонни Ли Миллер (Roger Collins), Белла Хиткот (Victoria Winters / Josette DuPres), Хлоя Грейс Морец (Carolyn Stoddard), Гулливер МакГрат (David Collins), Кристофер Ли (Clarney), Уильям Хоуп (Sheriff), Рэй Ширли (Mrs. Johnson)

О фильме:
Владелец поместья Коллинвуд, Барнабас Коллинз, богат, властен и слывет неисправимым Казановой, пока не совершает роковую ошибку, разбив сердце Анжелики Бошар. Будучи ведьмой в буквальном смысле этого слова, она обрекает его на судьбу, худшую, чем сама смерть — обращает его в вампира и хоронит заживо. Два века спустя Барнабаса случайно освобождают из склепа, и тот оказывается в очень изменившемся мире 1972 года. Он возвращается в Коллинвуд и находит в руинах это некогда величественное здание. Жалкие потомки его семьи сохранились лишь немногим лучше родового гнезда, и у каждого из них есть свои «скелеты в шкафу».

  

Страна: США Продолжительность: 01:53:05
Перевод: Профессиональный (дублированный)

Файл
Кодек: H.264
Качество: BDRip 1080p
Видео: 1920x1080 (16:9), 23.976 fps, AVC, 8 720 Kbps
Звук: 
русский / AC3 / 5.1 / 48 kHz / 448 kbps / 16 bit
украинский / AC3 / 5.1 / 48 kHz / 448 kbps / 16 bit
английский / AC3 / 5.1 / 48 kHz / 448 kbps / 16 bit
Субтитры: Russian , russian (forced) , english, englidsh (SDH)

x264
x264 [info]: frame I:1424 Avg QP:14.04 size:167872
x264 [info]: frame P:40778 Avg QP:16.37 size: 82661
x264 [info]: frame B:120471 Avg QP:18.72 size: 31393
x264 [info]: consecutive B-frames: 1.9% 3.3% 3.7% 71.3% 7.2% 5.4% 4.3% 2.4% 0.3% 0.2%
MI:
Общее
Уникальный идентификатор : 219324840514535858882667263073473935935 (0xA5006D839CACDF8C834D2B3D03EE3A3F)
Полное имя : E:торрентDark Shadows (2012)BDRp-F.HD.mkv
Формат : Matroska
Версия формата : Version 2
Размер файла : 7,95 Гбайт
Продолжительность : 1 ч. 53 м.
Общий поток : 10,1 Мбит/сек
Дата кодирования : UTC 2012-09-04 19:47:23
Программа кодирования : mkvmerge v5.4.0 ('Piper') built on Mar 10 2012 13:34:39
Библиотека кодирования : libebml v1.2.3 + libmatroska v1.3.0

Видео
Идентификатор : 1
Формат : AVC
Формат/Информация : Advanced Video Codec
Профиль формата : High@L4.1
Параметр CABAC формата : Да
Параметр ReFrames формата : 4 кадра
Идентификатор кодека : V_MPEG4/ISO/AVC
Продолжительность : 1 ч. 53 м.
Битрейт : 8720 Кбит/сек
Ширина : 1920 пикселей
Высота : 1080 пикселей
Соотношение сторон : 16:9
Режим частоты кадров : Постоянный
Частота кадров : 23,976 кадра/сек
Цветовое пространство : YUV
Субдискретизация насыщенности : 4:2:0
Битовая глубина : 8 бит
Тип развёртки : Прогрессивная
Бит/(Пиксели*Кадры) : 0.175
Размер потока : 6,73 Гбайт (85%)
Библиотека кодирования : x264 core 125 r2208 d9d2288
Настройки программы : cabac=1 / ref=4 / deblock=1:-3:-3 / analyse=0x3:0x113 / me=umh / subme=10 / psy=1 / psy_rd=1.00:0.10 / mixed_ref=1 / me_range=32 / chroma_me=1 / trellis=2 / 8x8dct=1 / cqm=0 / deadzone=21,11 / fast_pskip=0 / chroma_qp_offset=1 / threads=6 / lookahead_threads=1 / sliced_threads=0 / nr=0 / decimate=1 / interlaced=0 / bluray_compat=0 / constrained_intra=0 / bframes=9 / b_pyramid=2 / b_adapt=2 / b_bias=0 / direct=3 / weightb=1 / open_gop=0 / weightp=2 / keyint=240 / keyint_min=23 / scenecut=40 / intra_refresh=0 / rc=2pass / mbtree=0 / bitrate=8720 / ratetol=1.0 / qcomp=0.80 / qpmin=0 / qpmax=69 / qpstep=4 / cplxblur=20.0 / qblur=0.5 / ip_ratio=1.40 / pb_ratio=1.30 / aq=1:0.90
Язык : English
Default : Да
Forced : Нет
Основные цвета : BT.709
Характеристики трансфера : BT.709
Коэффициенты матрицы : BT.709

Аудио #1
Идентификатор : 2
Формат : AC-3
Формат/Информация : Audio Coding 3
Расширение режима : CM (complete main)
Параметр Endianness формата : Big
Идентификатор кодека : A_AC3
Продолжительность : 1 ч. 53 м.
Вид битрейта : Постоянный
Битрейт : 448 Кбит/сек
Каналы : 6 каналов
Расположение каналов : Front: L C R, Side: L R, LFE
Частота : 48,0 КГц
Битовая глубина : 16 бит
Метод сжатия : С потерями
Размер потока : 362 Мбайт (4%)
Язык : Russian
Default : Да
Forced : Нет

Аудио #2
Идентификатор : 3
Формат : AC-3
Формат/Информация : Audio Coding 3
Расширение режима : CM (complete main)
Параметр Endianness формата : Big
Идентификатор кодека : A_AC3
Продолжительность : 1 ч. 53 м.
Вид битрейта : Постоянный
Битрейт : 448 Кбит/сек
Каналы : 6 каналов
Расположение каналов : Front: L C R, Side: L R, LFE
Частота : 48,0 КГц
Битовая глубина : 16 бит
Метод сжатия : С потерями
Размер потока : 362 Мбайт (4%)
Язык : Ukrainian
Default : Нет
Forced : Нет

Аудио #3
Идентификатор : 4
Формат : AC-3
Формат/Информация : Audio Coding 3
Расширение режима : CM (complete main)
Параметр Endianness формата : Big
Идентификатор кодека : A_AC3
Продолжительность : 1 ч. 53 м.
Вид битрейта : Постоянный
Битрейт : 448 Кбит/сек
Каналы : 6 каналов
Расположение каналов : Front: L C R, Side: L R, LFE
Частота : 48,0 КГц
Битовая глубина : 16 бит
Метод сжатия : С потерями
Размер потока : 362 Мбайт (4%)
Язык : English
Default : Нет
Forced : Нет

Текст #1
Идентификатор : 5
Формат : UTF-8
Идентификатор кодека : S_TEXT/UTF8
Идентификатор кодека/Информация : UTF-8 Plain Text
Язык : Russian
Default : Нет
Forced : Нет

Текст #2
Идентификатор : 6
Формат : UTF-8
Идентификатор кодека : S_TEXT/UTF8
Идентификатор кодека/Информация : UTF-8 Plain Text
Заголовок : Forced
Язык : Russian
Default : Нет
Forced : Нет

Текст #3
Идентификатор : 7
Формат : UTF-8
Идентификатор кодека : S_TEXT/UTF8
Идентификатор кодека/Информация : UTF-8 Plain Text
Язык : English
Default : Нет
Forced : Нет

Текст #4
Идентификатор : 8
Формат : UTF-8
Идентификатор кодека : S_TEXT/UTF8
Идентификатор кодека/Информация : UTF-8 Plain Text
Заголовок : SDH
Язык : English
Default : Нет
Forced : Нет

Меню
00:00:00.000 : en:Chapter 01
00:12:25.202 : en:Chapter 04
00:19:57.779 : en:Chapter 06
00:30:21.486 : en:Chapter 07
00:38:55.041 : en:Chapter 09
00:49:48.235 : en:Chapter 10
01:00:11.065 : en:Chapter 11
01:09:47.391 : en:Chapter 13
01:19:36.772 : en:Chapter 15
01:29:05.340 : en:Chapter 17
01:39:36.887 : en:Chapter 19
01:48:26.041 : en:Chapter 21
01:53:03.943 : en:Chapter 22

Скриншоты:
   
  


Рейтинг: 4/5 | Оценок: 2
ПОДЕЛИТЬСЯ
Реклама
Реклама
Рекомендуем к прочтению
Информация:
Уважаемый посетитель, Вы зашли на сайт как незарегистрированный пользователь.
Мы рекомендуем Вам зарегистрироваться либо войти на сайт под своим именем.
Всего комментариев: 0
Информация
Посетители, находящиеся в группе Гости, не могут оставлять комментарии к данной публикации.