×
Реклама
Присоединяйся
ТОП Пользователей
Реклама видна только незарегистрированным пользователям. Зарегистрироваться.
Знахарка [01-04 из 04] (2012) SATRip
26-08-2012, 12:17
Alexey 0 1 870
Знахарка [01-04 из 04] (2012) SATRip
Год выпуска: 2012
Производство: Россия / Студия Паламеда
Жанр: Мелодрама, комедия
Продолжительность: 00:44:07
Субтитры: Нет
Режиссёр: Владимир Тумаев

В ролях: Юлия Кадушкевич, Павел Новиков, Людмила Полякова, Вероника Пляшкевич, Андрей Сенькин
Описание: У юной красавицы Леси редкий дар: она умеет лечить людей, исцеляя даже те болезни, с которыми не справляется современная медицина. Дар у Леси наследственный: знахарками были и ее покойная мать, и бабушка, с которой Леся живет в старом деревенском доме.Однажды в деревню приезжает богатый бизнесмен Аркадий, отчаявшийся вылечить свою травму. Леся справляется с его болезнью. Аркадий и Леся влюбляются друг в друга, и Аркадий делает героине предложение.Казалось бы, судьба Леси счастливо решена: жизнь в городе, в роскошной квартире, с любящем мужем… Но Лесина бабушка в отчаянии. Она единственная знает: дар Леси в городе пропадет

Сэмпл: http://multi-up.com/751300
Качество: SATRip
Формат: AVI
Видео кодек: DivX
Аудио кодек: MP3
Видео: MPEG4, DivX 5, 704x384 (16/9), 25.000 fps, 1 501 Kbps (0.222 bit/pixel)
Аудио: MP3, 48.0 KHz, 2 ch, 128 Kbps, CBR
Реклама отсутствует!
MI

General
Complete name : I:ЗАКАЧКИZnaharkaZnaharka.01.seriya.2012.SATRip.avi
Format : AVI
Format/Info : Audio Video Interleave
File size : 518 MiB
Duration : 44mn 7s
Overall bit rate : 1 642 Kbps
Writing library : Boilsoft AVI tool build 1/release

Video
ID : 0
Format : MPEG-4 Visual
Format profile : Simple@L3
Format settings, BVOP : 1
Format settings, QPel : No
Format settings, GMC : No warppoints
Format settings, Matrix : Default (H.263)
Codec ID : DX50
Codec ID/Hint : DivX 5
Duration : 44mn 7s
Bit rate : 1 501 Kbps
Width : 704 pixels
Height : 384 pixels
Display aspect ratio : 16:9
Frame rate : 25.000 fps
Color space : YUV
Chroma subsampling : 4:2:0
Bit depth : 8 bits
Scan type : Progressive
Compression mode : Lossy
Bits/(Pixel*Frame) : 0.222
Stream size : 474 MiB (91%)
Writing library : XviD 1.2.1 (UTC 2008-12-04)

Audio
ID : 1
Format : MPEG Audio
Format version : Version 1
Format profile : Layer 3
Mode : Joint stereo
Mode extension : MS Stereo
Codec ID : 55
Codec ID/Hint : MP3
Duration : 44mn 7s
Bit rate mode : Constant
Bit rate : 128 Kbps
Channel(s) : 2 channels
Sampling rate : 48.0 KHz
Compression mode : Lossy
Stream size : 40.4 MiB (8%)
Alignment : Aligned on interleaves
Interleave, duration : 24 ms (0.60 video frame)
Interleave, preload duration : 504 ms
Writing library : LAME3.98.2

   

   

   


Рейтинг: 4.8/5 | Оценок: 10
ПОДЕЛИТЬСЯ
Реклама
Реклама
Рекомендуем к прочтению
Информация:
Уважаемый посетитель, Вы зашли на сайт как незарегистрированный пользователь.
Мы рекомендуем Вам зарегистрироваться либо войти на сайт под своим именем.
Всего комментариев: 0
Информация
Посетители, находящиеся в группе Гости, не могут оставлять комментарии к данной публикации.