×
Реклама
Присоединяйся
ТОП Пользователей
Реклама видна только незарегистрированным пользователям. Зарегистрироваться.
Иерей-сан. Исповедь самурая (2015) WEB-DLRip-AVC | iTunes
27-12-2015, 06:06
Alexey 0 221
Иерей-сан. Исповедь самурая (2015) WEB-DLRip-AVC | iTunes
Информация о фильме
Название: Иерей-сан. Исповедь самурая
Оригинальное название: Иерей-сан. Исповедь самурая
Год выхода: 2015
Жанр: боевик, драма

Режиссер: Егор Баранов
В ролях: Кэри-Хироюки Тагава, Пётр Фёдоров, Иван Охлобыстин, Игорь Жижикин, Петр Мамонов, Дарья Екамасова, Любовь Толкалина, Людмила Чурсина, Надежда Маркина, Алина Бабак

О фильме:
Главный герой — Такуро Накамура, в крещении отец Николай — священник японской православной церкви, в прошлом профессиональный спортсмен, а в настоящем — родной брат главы одного из влиятельных кланов якудза. Однажды он не смог пройти мимо насилия и защитил обычную девушку, вступив в схватку с людьми из враждебной брату группировки. Война кланов якудза неизбежна. Став заложником криминальных «разборок», священник подвергается смертельной опасности и его отправляют служить в российское село Глубокое, раздираемое внутренними конфликтами. Это место крайне интересно Андрею Нелюбину для земельных махинаций, и он готов пойти на все, чтобы жители покинули родные земли. Отец Николай объединяет сельчан вокруг полуразрушенной церкви. Восстанавливая храм, они возродили мир между собой и приняли вызов. Началась уже совсем другая война…



Выпущено: Россия
Продолжительность: 01:41:51
Озвучивание: Оригинальное [iTunes]

Файл
Формат: MKV
Качество: WEB-DLRip-AVC
Видео: MPEG-4 AVC, ~1655 kb/s, 984x412
Аудио: AC3, 384 kb/s (6 ch)

СЭМПЛ


M/I
General
Unique ID : 168446655328299829602016400491210800296 (0x7EB9A5500F4BC6AEDE17003C850AFCA8)
Complete name : F:FILMSНОВЫЕИерей-сан. Исповедь самурая.(2015).WEB-DLRIP_AVC.[-=DoMiNo=-].mkv
Format : Matroska
Format version : Version 4 / Version 2
File size : 1.45 GiB
Duration : 1h 41mn
Overall bit rate : 2 042 Kbps
Movie name : Иерей-сан. Исповедь самурая
Writing application : XviD4PSP 7.0.196
Writing library : Lavf56.40.101 / Lavf56.40.101
Attachements : cover.png
ACTORS : Кэри-Хироюки Тагава, Пётр Фёдоров, Иван Охлобыстин, Игорь Жижикин, Петр Мамонов, Дарья Екамасова, Любовь Толкалина, Людмила Чурсина, Надежда Маркина, Алина Бабак, Вадим Медведев, показать всех
COUNTRY : Россия
DATE : 2015
DIRECTOR : Егор Баранов
ENCODING_INFO : MATROSKA,WEBM > MKV / H264 > X264 VBR-2P 1655kbps Custom / AC3 > COPY
GENRE : боевик, драма
ITUNEXTC : ru-movie|12+|200|
PRODUCER : Любовь Калинская, Иван Охлобыстин, Грант Палагаев
RATING : 6.857
SYNOPSIS : Главный герой — Такуро Накамура, в крещении отец Николай — священник японской православной церкви, в прошлом профессиональный спортсмен, а в настоящем — родной брат главы одного из влиятельных кланов якудза. Однажды он не смог пройти мимо насилия и защитил обычную девушку, вступив в схватку с людьми из враждебной брату группировки. Война кланов якудза неизбежна. Став заложником криминальных «разборок», священник подвергается смертельной опасности и его отправляют служить в российское село Глубокое, раздираемое внутренними конфликтами. Это место крайне интересно Андрею Нелюбину для земельных махинаций, и он готов пойти на все, чтобы жители покинули родные земли. Отец Николай объединяет сельчан вокруг полуразрушенной церкви. Восстанавливая храм, они возродили мир между собой и приняли вызов. Началась уже совсем другая война…
WRITER : Иван Охлобыстин, Роман Владыкин

Video
ID : 1
Format : AVC
Format/Info : Advanced Video Codec
Format profile : High@L4.1
Format settings, CABAC : Yes
Format settings, ReFrames : 12 frames
Codec ID : V_MPEG4/ISO/AVC
Duration : 1h 41mn
Bit rate : 1 655 Kbps
Width : 984 pixels
Height : 412 pixels
Display aspect ratio : 2.40:1
Frame rate mode : Constant
Frame rate : 24.000 fps
Color space : YUV
Chroma subsampling : 4:2:0
Bit depth : 8 bits
Scan type : Progressive
Bits/(Pixel*Frame) : 0.170
Stream size : 1.15 GiB (79%)
Writing library : x264 core 148 r2638M 7599210
Encoding settings : cabac=1 / ref=12 / deblock=1:-3:-3 / analyse=0x3:0x133 / me=umh / subme=11 / psy=1 / psy_rd=1.00:0.10 / mixed_ref=1 / me_range=32 / chroma_me=1 / trellis=2 / 8x8dct=1 / cqm=0 / deadzone=21,11 / fast_pskip=0 / chroma_qp_offset=-3 / threads=5 / lookahead_threads=1 / sliced_threads=0 / nr=0 / decimate=1 / interlaced=0 / bluray_compat=0 / constrained_intra=0 / bframes=11 / b_pyramid=2 / b_adapt=2 / b_bias=0 / direct=3 / weightb=1 / open_gop=0 / weightp=2 / keyint=240 / keyint_min=24 / scenecut=40 / intra_refresh=0 / rc=2pass / mbtree=0 / bitrate=1655 / ratetol=1.0 / qcomp=0.60 / qpmin=0 / qpmax=69 / qpstep=4 / cplxblur=20.0 / qblur=0.5 / ip_ratio=1.40 / pb_ratio=1.30 / aq=1:1.00
Language : English
Default : Yes
Forced : No
Color range : Limited
Color primaries : BT.709
Transfer characteristics : BT.709
Matrix coefficients : BT.709
DURATION : 01:41:51.334000000

Audio
ID : 2
Format : AC-3
Format/Info : Audio Coding 3
Mode extension : CM (complete main)
Format settings, Endianness : Big
Codec ID : A_AC3
Duration : 1h 41mn
Bit rate mode : Constant
Bit rate : 384 Kbps
Channel(s) : 6 channels
Channel positions : Front: L C R, Side: L R, LFE
Sampling rate : 48.0 KHz
Frame rate : 31.250 fps (1536 spf)
Bit depth : 32 bits
Compression mode : Lossy
Stream size : 280 MiB (19%)
Language : Russian
Default : Yes
Forced : No
DURATION : 01:41:51.328000000

Menu
00:00:00.000 : :Глава 1
00:05:58.000 : :Глава 2
00:12:53.000 : :Глава 3
00:19:32.000 : :Глава 4
00:26:28.000 : :Глава 5
00:31:49.000 : :Глава 6
00:37:29.000 : :Глава 7
00:42:49.000 : :Глава 8
00:48:45.000 : :Глава 9
00:55:29.000 : :Глава 10
01:02:03.000 : :Глава 11
01:08:00.000 : :Глава 12
01:13:05.000 : :Глава 13
01:18:23.000 : :Глава 14
01:24:40.000 : :Глава 15
01:30:59.000 : :Глава 16
01:36:16.000 : :Глава 17





Рейтинг: 0/5 | Оценок: 0
ПОДЕЛИТЬСЯ
Реклама
Реклама
Рекомендуем к прочтению
Информация:
Уважаемый посетитель, Вы зашли на сайт как незарегистрированный пользователь.
Мы рекомендуем Вам зарегистрироваться либо войти на сайт под своим именем.
Всего комментариев: 0
Информация
Посетители, находящиеся в группе Гости, не могут оставлять комментарии к данной публикации.