×
Реклама
Присоединяйся
ТОП Пользователей
Реклама видна только незарегистрированным пользователям. Зарегистрироваться.
Шеф Адам Джонс / Burnt (2015) WEB-DLRip от NNM-CLUB | Чистый звук
27-12-2015, 06:05
Alexey 0 168
Шеф Адам Джонс / Burnt (2015) WEB-DLRip от NNM-CLUB | Чистый звук
Шеф Адам Джонс / Burnt (2015) WEB-DLRip [Line]

Производство: США, 3 Arts Entertainment, Double Feature Films, PeaPie Films
Жанр: Драма, Комедия

Режиссер: Джон Уэллс
Продюсер: Стейси Шер, Эрвин Стофф, Дэвид Глассер
Актеры: Брэдли Купер, Сиенна Миллер, Омар Си, Даниэль Брюль, Риккардо Скамарчио, Ума Турман, Эмма Томпсон, Сэм Кили, Генри Гоодман, Мэттью Риз

Описание:
В центре сюжета — история некогда знаменитого шеф-повара, который из-за своего пагубного пристрастия теряет собственный ресторан в Париже, пониженный в рейтинге до унизительных двух звезд. Решив не сдаваться, он вновь собирает свою команду, перестраивает лондонский ресторан и надеется получить три звезды.


Рейтинг MPAA: R
Возраст: 18+
Дата мировой премьеры: 18 октября 2015
Дата премьеры в России: 12 ноября 2015, «Top Film Distribution»

Релиз от: FAGOT100 (NNM-CLUB)
Продолжительность: 01:36:15 (финальные титры отсутствуют)
Качество видео: WEB-DLRip
Перевод: Дублированный (Чистый звук)
Вид субтитров: Отсутствуют

Видео: XviD, 720x304 (2.35:1), 24.000 fps, 943 Kbps (0.179 bit/pixel)
Аудио: MP3, 48.0 KHz, 2 ch, 128 Kbps, CBR

MediaInfo:
[code]Формат : AVI
Формат/Информация : Audio Video Interleave
Размер файла : 744 Мбайт
Продолжительность : 1 ч. 36 м.
Общий поток : 1080 Кбит/сек
Программа кодирования : VirtualDubMod 1.5.10.3 | www.virtualdub-fr.org || (build 2550/release)
Библиотека кодирования : VirtualDubMod build 2550/release

Видео
Идентификатор : 0
Формат : MPEG-4 Visual
Профиль формата : Advanced Simple@L5
Параметр BVOP формата : 1
Параметр QPel формата : Нет
Параметр GMC формата : Без точки перехода
Параметр матрицы формата : Default (MPEG)
Идентификатор кодека : XVID
Идентификатор кодека/Подсказка : XviD
Продолжительность : 1 ч. 36 м.
Битрейт : 943 Кбит/сек
Ширина : 720 пикселей
Высота : 304 пикселя
Соотношение сторон : 2,35:1
Частота кадров : 24,000 кадра/сек
Цветовое пространство : YUV
Субдискретизация насыщенности : 4:2:0
Битовая глубина : 8 бит
Тип развёртки : Прогрессивная
Метод сжатия : С потерями
Бит/(Пиксели*Кадры) : 0.179
Размер потока : 649 Мбайт (87%)
Библиотека кодирования : XviD 73

Аудио
Идентификатор : 1
Формат : MPEG Audio
Версия формата : Version 1
Профиль формата : Layer 3
Идентификатор кодека : 55
Идентификатор кодека/Подсказка : MP3
Продолжительность : 1 ч. 36 м.
Вид битрейта : Постоянный
Битрейт : 128 Кбит/сек
Каналы : 2 канала
Частота : 48,0 КГц
Метод сжатия : С потерями
Размер потока : 88,1 Мбайт (12%)
Выравнивание : Соединение по промежуткам
Продолжительность промежутка : 42 мс. (1,00 видеокадр)
Время предзагрузки промежутка : 504 мс.
Библиотека кодирования : LAME3.99r
Настройки программы : -m s -V 4 -q 2 -lowpass 17 -b 128

Скриншоты:


Рейтинг: 0/5 | Оценок: 0
ПОДЕЛИТЬСЯ
Реклама
Реклама
Рекомендуем к прочтению
Информация:
Уважаемый посетитель, Вы зашли на сайт как незарегистрированный пользователь.
Мы рекомендуем Вам зарегистрироваться либо войти на сайт под своим именем.
Всего комментариев: 0
Информация
Посетители, находящиеся в группе Гости, не могут оставлять комментарии к данной публикации.