×
Реклама
Присоединяйся
ТОП Пользователей
Реклама видна только незарегистрированным пользователям. Зарегистрироваться.
Приключения Нуба / The Noob Adventures 1 Сезон, Серии 1-13 (?) Включая три спецэпизода
4-06-2015, 14:19
IVAN 1 1 437
Приключения Нуба / The Noob Adventures 1 Сезон, Серии 1-13 (?) Включая три спецэпизода
Приключения Нуба / The Noob Adventures
1 Сезон, Серии 1-13 (?)
Включая три спецэпизода
picГод выпуска: 2010-2013
Страна: США pic
Производство: pic
Жанр: мультфильм, фэнтези, приключения
Продолжительность: каждая серия ~00:09:00
Озвучка: Творческая многоголосая закадровая (StopGame)
Субтитры: русские (переводят надписи)

Сценаристы: Джим Швертфегер (Falconer02)
Режиссеры: Джим Швертфегер (Falconer02)
Персонажи: Нуб, Фарт Гарфунгл, ГейЛорд Баня (Бог), Йода Морфиус, Радужная Пони, Змей, НПС Крестьянин, НПС ребенок, НПС

Роли озвучивали: Дмитрий Кущак, Артём Кущак, Алексей Васюков, Иван Лоев, Глеб Мищереков, Максим Солодилов, Александр Чернов

Описание:
"Приключения Нуба" тяжело определить в какой-либо из наших разделов. Фактически это не машинима, да и с игровым кино этот проект мало что роднит. Но это всё не так важно. Главное - вы теперь можете наблюдать за увлекательными приключениями трёх рисованных товарищей в мире Minecraft'а. Нубик, Змей и Фарт Гарфунгл должны спасти сервер от грифера Гейлорда Бани, из за которого все люди ушли с сервера.

Релиз:
pic
StopGame
Тех. данные
Качество: HDTVRip | Формат: MP4
Видео кодек: MPEG4 (H264) | Аудио кодек: AAC
Видео: MPEG4 Video (H264) 1280x720 25fps 1086kbps
Аудио: AAC 44100Hz stereo 144kbps
[свернуть]
MI
General
Complete name: C:\Приключения Нуба\
Format: MPEG-4
Format profile: Base Media / Version 2
Codec ID: mp42
File size: 26.7 MiB
Duration: 3mn 1s
Overall bit rate mode: Variable
Overall bit rate: 1 236 Kbps
Encoded date: UTC 2011-09-04 18:35:15
Tagged date: UTC 2011-09-04 18:35:15
gsst: 0
gstd: 181080
gssd: BB2FB6C44HH1359967301320081
gshh: r1---sn-q5u5apox-3c2e.c.youtube.com

Video
ID: 1
Format: AVC
Format/Info: Advanced Video Codec
Format profile: High@L3.1
Format settings, CABAC: Yes
Format settings, ReFrames: 1 frame
Codec ID: avc1
Codec ID/Info: Advanced Video Coding
Duration: 3mn 1s
Bit rate: 1 086 Kbps
Maximum bit rate: 6 834 Kbps
Width: 1 280 pixels
Height: 720 pixels
Display aspect ratio: 16:9
Frame rate mode: Constant
Frame rate: 25.000 fps
Color space: YUV
Chroma subsampling: 4:2:0
Bit depth: 8 bits
Scan type: Progressive
Bits/(Pixel*Frame): 0.047
Stream size: 23.4 MiB (88%)
Tagged date: UTC 2011-09-04 18:35:15

Audio
ID: 2
Format: AAC
Format/Info: Advanced Audio Codec
Format profile: LC
Codec ID: 40
Duration: 3mn 1s
Bit rate mode: Variable
Bit rate: 144 Kbps
Maximum bit rate: 200 Kbps
Channel(s): 2 channels
Channel positions: Front: L R
Sampling rate: 44.1 KHz
Compression mode: Lossy
Stream size: 3.13 MiB (12%)
Title: IsoMedia File Produced by Google, 5-11-2011
Encoded date: UTC 2011-09-04 18:35:15
Tagged date: UTC 2011-09-04 18:35:15



Рейтинг: 3/5 | Оценок: 1
ПОДЕЛИТЬСЯ
Реклама
Реклама
Рекомендуем к прочтению
Информация:
Уважаемый посетитель, Вы зашли на сайт как незарегистрированный пользователь.
Мы рекомендуем Вам зарегистрироваться либо войти на сайт под своим именем.
Всего комментариев: 1
TheBrainDaniil написал(а) 16 июня 2015 12:40
Очень классный мульт! СОВЕТУЮ!!! zmem_pfu
Информация
Посетители, находящиеся в группе Гости, не могут оставлять комментарии к данной публикации.