×
Реклама
Присоединяйся
ТОП Пользователей
Реклама видна только незарегистрированным пользователям. Зарегистрироваться.
Август Раш / August Rush (2007) BDRip 1080p от FREEISLAND
13-03-2015, 18:18
IVAN 0 806
Август Раш / August Rush (2007) BDRip 1080p от FREEISLAND
Год выпуска: 2007
Страна: США
Жанр: драма, музыка
Продолжительность: 01:53:37
Перевод: Профессиональный дублированный

Режиссер: Кёрстен Шеридан / Kirsten Sheridan



В ролях: Фредди Хаймор (Evan Taylor - 'August Rush'), Робин Уильямс (Maxwell 'Wizard' Wallace), Кери Рассел (Lyla Novacek), Джонатан Риз Майерс (Louis Connelly), Терренс Ховард (Richard Jeffries), Уильям Сэдлер (Thomas Novacek), Мэриэн Селдес (The Dean), Майкелти Уильямсон (Reverend James), Леон Дж. Томас III (Arthur), Аарон Стэтон (Nick), Алекс О’Локлин (Marshall), Джамия Симон Нэш (Hope)

Описание: Молодой харизматичный ирландский гитарист и американская виолончелистка из престижной семьи полюбили друг друга. После волшебной встречи в Нью-Йорке, обстоятельства оказываются сильнее их и они вынуждены расстаться. Родившийся ребёнок, Август Раш, по столь же несчастливому стечению обстоятельств оказывается в одном из нью-Йоркских приютов.
Двенадцать лет спустя Август Раш, необыкновенно талантливый для своего возраста музыкант, отчаянно стремится найти своих родителей.
Единственной возможностью для этого он считает свою музыку - юный музыкант верит, что если он будет играть его родители смогут узнать и найти его по музыке. Теперь, опекаемый загадочным незнакомцем, он играет на улицах Нью-Йорка и пытается найти родителей, которых он никогда не видел, с помощью своего исключительного музыкального дара.



MPAA: PG - Рекомендуется присутствие родителей

Качество: BDRip
Контейнер: MKV
Видео: AVC, 1920x800 (2.40:1), 9123 kbps, 23,976 fps, 0,248 bpp
Аудио №1: русский /; AC3 /; 5.1 /; 48 kHz /; 448 kbps /; 16 bit
Аудио №2: английский /; AC3 /; 5.1 /; 48 kHz /; 448 kbps /; 16 bit
Субтитры №1: русские (х2),английские
Навигация по главам: есть

Media Info

General
Unique ID: 232443543104460404896854352114352751994 (0xAEDEFF7D37F7A65B8A129E2D2F99857A)
Complete name: E:August Rush.2007.1080p.F-HD.mkv
Format: Matroska
Format version: Version 2
File size: 7.95 GiB
Duration: 1h 53mn
Overall bit rate: 10.0 Mbps
Encoded date: UTC 2013-02-02 09:53:53
Writing application: mkvmerge v5.4.0 ('Piper') built on Mar 10 2012 13:34:39
Writing library: libebml v1.2.3 + libmatroska v1.3.0

Video
ID: 1
Format: AVC
Format/Info: Advanced Video Codec
Format profile: High@L4.1
Format settings, CABAC: Yes
Format settings, ReFrames: 5 frames
Codec ID: V_MPEG4/ISO/AVC
Duration: 1h 53mn
Bit rate: 9 123 Kbps
Width: 1 920 pixels
Height: 800 pixels
Display aspect ratio: 2.40:1
Frame rate: 23.976 fps
Color space: YUV
Chroma subsampling: 4:2:0
Bit depth: 8 bits
Scan type: Progressive
Bits/(Pixel*Frame): 0.248
Stream size: 7.08 GiB (89%)
Writing library: x264 core 129 r2230 1cffe9f
Encoding settings: cabac=1 / ref=5 / deblock=1:-3:-3 / analyse=0x3:0x113 / me=umh / subme=10 / psy=1 / psy_rd=1.00:0.07 / mixed_ref=1 / me_range=32 / chroma_me=1 / trellis=2 / 8x8dct=1 / cqm=0 / deadzone=21,11 / fast_pskip=0 / chroma_qp_offset=-3 / threads=6 / lookahead_threads=1 / sliced_threads=0 / nr=0 / decimate=1 / interlaced=0 / bluray_compat=0 / constrained_intra=0 / bframes=9 / b_pyramid=2 / b_adapt=2 / b_bias=0 / direct=3 / weightb=1 / open_gop=0 / weightp=2 / keyint=240 / keyint_min=23 / scenecut=40 / intra_refresh=0 / rc=2pass / mbtree=0 / bitrate=9123 / ratetol=1.0 / qcomp=0.70 / qpmin=4 / qpmax=63 / qpstep=4 / cplxblur=20.0 / qblur=0.5 / ip_ratio=1.40 / pb_ratio=1.30 / aq=2:0.80
Language: English
Default: Yes
Forced: No
Color primaries: BT.709-5, BT.1361, IEC 61966-2-4, SMPTE RP177
Transfer characteristics: BT.709-5, BT.1361
Matrix coefficients: BT.709-5, BT.1361, IEC 61966-2-4 709, SMPTE RP177

Audio #1
ID: 2
Format: AC-3
Format/Info: Audio Coding 3
Mode extension: CM (complete main)
Codec ID: A_AC3
Duration: 1h 53mn
Bit rate mode: Constant
Bit rate: 448 Kbps
Channel(s): 6 channels
Channel positions: Front: L C R, Side: L R, LFE
Sampling rate: 48.0 KHz
Bit depth: 16 bits
Compression mode: Lossy
Stream size: 364 MiB (4%)
Language: Russian
Default: Yes
Forced: No

Audio #2
ID: 3
Format: AC-3
Format/Info: Audio Coding 3
Mode extension: CM (complete main)
Codec ID: A_AC3
Duration: 1h 53mn
Bit rate mode: Constant
Bit rate: 448 Kbps
Channel(s): 6 channels
Channel positions: Front: L C R, Side: L R, LFE
Sampling rate: 48.0 KHz
Bit depth: 16 bits
Compression mode: Lossy
Stream size: 364 MiB (4%)
Language: English
Default: No
Forced: No

Text #1
ID: 4
Format: UTF-8
Codec ID: S_TEXT/UTF8
Codec ID/Info: UTF-8 Plain Text
Language: Russian
Default: No
Forced: No

Text #2
ID: 5
Format: UTF-8
Codec ID: S_TEXT/UTF8
Codec ID/Info: UTF-8 Plain Text
Language: Russian
Default: No
Forced: No

Text #3
ID: 6
Format: UTF-8
Codec ID: S_TEXT/UTF8
Codec ID/Info: UTF-8 Plain Text
Language: English
Default: No
Forced: No

Menu
00:00:00.000: en:00:00:00.000
00:05:00.000: en:00:05:00.000
00:10:00.000: en:00:10:00.000
00:15:00.000: en:00:15:00.000
00:20:00.000: en:00:20:00.000
00:25:00.000: en:00:25:00.000
00:30:00.000: en:00:30:00.000
00:35:00.000: en:00:35:00.000
00:40:00.000: en:00:40:00.000
00:45:00.000: en:00:45:00.000
00:50:00.000: en:00:50:00.000
00:55:00.000: en:00:55:00.000
01:00:00.000: en:01:00:00.000
01:05:00.000: en:01:05:00.000
01:10:00.000: en:01:10:00.000
01:15:00.000: en:01:15:00.000
01:20:00.000: en:01:20:00.000
01:25:00.000: en:01:25:00.000
01:30:00.000: en:01:30:00.000
01:35:00.000: en:01:35:00.000
01:40:00.000: en:01:40:00.000
01:45:00.000: en:01:45:00.000
01:50:00.000: en:01:50:00.000
Знаете ли Вы, что...

Роль Лайлы Новачек могла достаться также Лив Тайлер и Клер Дэйнс.
Известному британскому гитаристу и певцу Джеймсу Моррисону была предложена роль Луиса Коннелли, но он отклонил предложение, решив сосредоточиться на своей музыкальной карьере.
По собственному признанию Робина Уильямса главным вдохновителем его игры в роли Волшебника (Wizard) был солист группы U2 Пол Дэвид Хьюсоном (Боно).
За исключением композиции «Dueling guitars» всю игру на гитаре вместо главного героя в реальности исполнила американская гитаристка Каки Кинг. Именно её руки появляются на экране в большинстве этих сцен.



Рейтинг: 4.3/5 | Оценок: 3
ПОДЕЛИТЬСЯ
Реклама
Реклама
Рекомендуем к прочтению
Информация:
Уважаемый посетитель, Вы зашли на сайт как незарегистрированный пользователь.
Мы рекомендуем Вам зарегистрироваться либо войти на сайт под своим именем.
Всего комментариев: 0
Информация
Посетители, находящиеся в группе Гости, не могут оставлять комментарии к данной публикации.