×
Реклама
Присоединяйся
ТОП Пользователей
Реклама видна только незарегистрированным пользователям. Зарегистрироваться.
Автоспорт. Formula E Championships. 2014-2015. Этап 4. Буэнос-Айрес (Аргентина) [10.01] (2015) DVB-S2 Remux
11-01-2015, 09:53
IVAN 0 301
Автоспорт. Formula E Championships. 2014-2015. Этап 4. Буэнос-Айрес (Аргентина) [10.01] (2015) DVB-S2 Remux
Вид спорта: Автогонки
Дата/Год выпуска: 10.01.15
Язык комментариев: английский, немецкий

Автор записи: SashaR.

Качество: DVB-S2 Remux
Формат Видео: TS
Видео: 1920x1080, 16:9, 13.8 Mbps, 25 fps
Аудио: AC-3, 192/384 Kbps, 48.0 kHz, 2 channels

Media Info
G:РаздачиFormula E Championships. 2014-2015. Этап 4. Буэнос-Айрес (Аргентина).ts
General #6
ID: 6 (0x6)
Complete name: G:РаздачиFormula E Championships. 2014-2015. Этап 4. Буэнос-Айрес (Аргентина).ts
Format: MPEG-TS
File size: 8.57 GiB
Duration: 1h 27mn
Overall bit rate mode: Variable
Overall bit rate: 14.0 Mbps
Video #767
ID: 767 (0x2FF)
Menu ID: 129 (0x81)
Format: AVC
Format/Info: Advanced Video Codec
Format profile: High@L4.0
Format settings, CABAC: Yes
Format settings, ReFrames: 3 frames
Codec ID: 27
Duration: 1h 27mn
Bit rate: 12.5 Mbps
Width: 1 920 pixels
Height: 1 080 pixels
Display aspect ratio: 16:9
Frame rate: 25.000 fps
Standard: Component
Color space: YUV
Chroma subsampling: 4:2:0
Bit depth: 8 bits
SCAN type: Interlaced
Scan order: Top Field First
Bits/(Pixel*Frame): 0.240
Stream size: 7.65 GiB (89%)
Color primaries: BT.709
Transfer characteristics: BT.709
Matrix coefficients: BT.709
Audio #770
ID: 770 (0x302)
Menu ID: 129 (0x81)
Format: AC-3
Format/Info: Audio Coding 3
Mode extension: CM (complete main)
Format settings, Endianness: Big
Codec ID: 6
Duration: 1h 27mn
Bit rate mode: Constant
Bit rate: 192 Kbps
Channel count: 2 channels
Channel positions: Front: L R
Sampling rate: 48.0 KHz
Bit depth: 16 bits
Compression mode: Lossy
Delay relative to video: 106ms
Stream size: 121 MiB (1%)
Language: German
Language, more info: Clean effects
Audio #771
ID: 771 (0x303)
Menu ID: 129 (0x81)
Format: AC-3
Format/Info: Audio Coding 3
Mode extension: CM (complete main)
Format settings, Endianness: Big
Codec ID: 6
Duration: 1h 27mn
Bit rate mode: Constant
Bit rate: 384 Kbps
Channel count: 6 channels
Channel positions: Front: L C R, Side: L R, LFE
Sampling rate: 48.0 KHz
Bit depth: 16 bits
Compression mode: Lossy
Delay relative to video: 47ms
Stream size: 241 MiB (3%)
Language: German
Language, more info: Clean effects
Audio #772
ID: 772 (0x304)
Menu ID: 129 (0x81)
Format: AC-3
Format/Info: Audio Coding 3
Mode extension: CM (complete main)
Format settings, Endianness: Big
Codec ID: 6
Duration: 1h 27mn
Bit rate mode: Constant
Bit rate: 224 Kbps
Channel count: 2 channels
Channel positions: Front: L R
Sampling rate: 48.0 KHz
Bit depth: 16 bits
Compression mode: Lossy
Delay relative to video: 130ms
Stream size: 141 MiB (2%)
Language: English
Language, more info: Clean effects
Продолжительность
01:27:49




Рейтинг: 3/5 | Оценок: 1
ПОДЕЛИТЬСЯ
Реклама
Реклама
Рекомендуем к прочтению
Информация:
Уважаемый посетитель, Вы зашли на сайт как незарегистрированный пользователь.
Мы рекомендуем Вам зарегистрироваться либо войти на сайт под своим именем.
Всего комментариев: 0
Информация
Посетители, находящиеся в группе Гости, не могут оставлять комментарии к данной публикации.