×
Реклама
Присоединяйся
ТОП Пользователей
Реклама видна только незарегистрированным пользователям. Зарегистрироваться.
Within Temptation: Let Us Burn - Elements & Hydra Live In Concert (2014) DVD9
23-11-2014, 20:02
Rockabilly 1 1 905
Within Temptation: Let Us Burn - Elements & Hydra Live In Concert  (2014) DVD9
Информация о фильме
Название: Within Temptation: Let Us Burn - Elements & Hydra Live In Concert
Год выхода: 2014
Жанр: Symphonic Metal, Symphonic Rock, Power Metal

О фильме:
Голландские симфо-металлисты "WITHIN TEMPTATION" выпустят новый концертный DVD/Blu-ray/2CD "Let Us Burn - Elements & Hydra Live In Concert" 14 ноября. На релизе будут представлены два наиболее обсуждаемых стадионных шоу WITHIN TEMPTATION – блистательный концерт 2012 года "Elements", посвященный 15-летию группы, и последнее шоу европейского тура в поддержку альбома "Hydra", состоявшееся в амстердамском зале “Heineken Music Hall” в мае 2014 года.Если говорить о концертных шоу, WITHIN TEMPTATION принадлежат к лиге выдающихся артистов. Эти два выступления полностью доказывают обоснованность их репутации, а также демонстрируют впечатляющие декорации и спецэффекты, среди которых нашлось место даже для гигантских огнедышащих драконов!В ноябре 2012 года WITHIN TEMPTATION бросили вызов самим себе, создав одно из своих самых впечатляющих стадионных шоу специально к пятнадцатому дню рождения коллектива. Это симфоническое шоу, получившее название "Elements", было показано всего один раз в зале “Sportpaleis” в Антверпене и собрало 15 тысяч фэнов – настоящее исполнение мечты для группы. Получив таким образом новый приток вдохновения, музыканты приступили к сочинению своего шестого студийного альбома "Hydra", очень тепло принятого критиками."Hydra" увидел свет в начале 2014 года, сразу же попав в верхнюю десятку хит-парадов более 10 европейских стран, заняв второе место в мировом хит-параде iTunes и продвинувшись в Топ-20 хит-парада журнала “Billboard” выше, чем любой другой альбом WITHIN TEMPTATION. Успех альбома был закреплен европейским стадионным туром из 33 концертов, в ходе которого группа собирала аншлаги на таких знаменитых площадках как “Wembley Arena” в Лондоне, “Le Zenith” в Париже и “Heineken Music Hall” в Амстердаме (дважды).Концерты европейского тура в поддержку "Hydra" посетило более 120 тыс. человек, но планы WITHIN TEMPTATION этим не ограничиваются. В настоящее время группа гастролирует по Северной Америке, а поездки в Южную Америку и Японию ей только предстоят. К концу года число зрителей, увидевших WITHIN TEMPTATION в ходе текущего концертного цикла, превысит полмиллиона.WITHIN TEMPTATION известны впечатляющими концертными DVD. Их предыдущая работа на этом поприще - "Black Symphony" – помогла им стать одной из самых популярных групп жанра. На недавней церемонии вручения наград в Берлине немецкое издание журнала “Metal Hammer” вручило WITHIN TEMPTATION престижную премию в категории "Лучшая концертная группа".
Новый DVD полностью соответствует этому титулу.

DVD 1
(Elements Antwerp)
01 Iron
02 In The Middle Of The Night
03 Faster
04 Fire And Ice
05 Our Solemn Hour
06 Stand My Ground
07 Angels
08 Sanctuary
09 The Last Dance
10 Say My Name
11 Candles
12 Sinead
13 The Promise
14 Mother Earth
15 Ice Queen
16 Stairway To The Skies

DVD 2
(Hydra Amsterdam)
01 Let Us Burn
02 Paradise (What About Us?)
03 Faster
04 Iron
05 Edge Of The World
06 In The Middle Of The Night
07 Dangerous
08 And We Run
09 Stand My Ground
10 Covered By Roses
11 Mother Earth
12 What Have You Done
13 Silver Moonlight
14 Whole World Is Watching
15 Sinead
16 Ice Queen

MEDIA Info:
Общее
Полное имя : G:\Within Temptation - Let Us Burn (DVD)\VIDEO_TS\VTS_01_1.VOB
Формат : MPEG-PS
Размер файла : 1024 Мбайт
Продолжительность : 26 м.
Режим общего битрейта : Переменный
Общий поток : 5303 Кбит/сек

Видео
Идентификатор : 224 (0xE0)
Формат : MPEG Video
Версия формата : Version 2
Профиль формата : Main@Main
Параметр BVOP формата : Да
Параметр матрицы формата : По умолчанию
Параметр GOP формата : M=3, N=12
Format_Settings_PictureStructure : Frame
Продолжительность : 26 м.
Вид битрейта : Переменный
Битрейт : 5006 Кбит/сек
Максимальный битрейт : 7000 Кбит/сек
Ширина : 720 пикселей
Высота : 576 пикселей
Соотношение сторон : 16:9
Частота кадров : 25,000 кадров/сек
Стандарт вещания : PAL
Цветовое пространство : YUV
Субдискретизация насыщенности : 4:2:0
Битовая глубина : 8 бит
Тип развёртки : Чересстрочная
Порядок развёртки : Верхнее поле первое
Метод сжатия : С потерями
Бит/(Пиксели*Кадры) : 0.483
Временной код первого кадра : 00:00:00:00
Оригинал временного кода : Group of pictures header
Размер потока : 967 Мбайт (94%)
Основные цвета : BT.601 PAL
Характеристики трансфера : BT.470 System B, BT.470 System G
Коэффициенты матрицы : BT.601

Аудио
Идентификатор : 189 (0xBD)-128 (0x80)
Формат : AC-3
Формат/Информация : Audio Coding 3
Расширение режима : CM (complete main)
Параметр Endianness формата : Big
Режим смешивания : DVD-Video
Продолжительность : 26 м.
Вид битрейта : Постоянный
Битрейт : 192 Кбит/сек
Каналы : 2 канала
Расположение каналов : Front: L R
Частота : 48,0 КГц
Битовая глубина : 16 бит
Метод сжатия : С потерями
Размер потока : 37,1 Мбайт (4%)

Страна: Голландия
Продолжительность: 02:51:33

Файл
Кодек: DVD Video, MPEG2, AC3
Качество: DVD9
Видео: 720x576 (PAL,16x9) at 25.000fps, MPEG-2, ~5006 Kbps, 0.483 bitpixel
Звук: 48,0 kHz, AC-3, 2ch, Front: L R, 192Kbps, 16bit


Рейтинг: 4/5 | Оценок: 2
ПОДЕЛИТЬСЯ
Реклама
Реклама
Рекомендуем к прочтению
Информация:
Уважаемый посетитель, Вы зашли на сайт как незарегистрированный пользователь.
Мы рекомендуем Вам зарегистрироваться либо войти на сайт под своим именем.
Всего комментариев: 1
Rockabilly написал(а) 23 ноября 2014 20:04
Мое мнение - Музыка - Super!

Что скажите Вы ?
Информация
Посетители, находящиеся в группе Гости, не могут оставлять комментарии к данной публикации.