×
Реклама
Присоединяйся
ТОП Пользователей
Реклама видна только незарегистрированным пользователям. Зарегистрироваться.
Боец поневоле / Forced to Fight (2011) BDRip 1080p by msltel | P
6-11-2014, 18:30
Doklangepas 0 409
Боец поневоле / Forced to Fight (2011) BDRip 1080p by msltel | P
Год выпуска: 2011
Страна: Канада
Жанр: боевик
Продолжительность: 01:40:01
Перевод: профессиональный многоголосый
Субтитры: английские

Режиссёр: Джонас Куастел

В ролях: Владимир Коморовски, Гэри Дэниелс, Брайан Флаэрти, Филип Грэйнджер, Арки Аломар, Флорин Роата, Корбин Томас, Александра Уивер, Питер Уэллер, Дорджн Захарджа

Описание: Строптивый участник боёв без правил идёт наперекор воле босса, выигрывает схватку и сбегает с деньгами. По излишней самоуверенности, он полагает, что мафию можно обмануть. Но это не так. Не успевает он выйти на улицу, как попадает в лапы громил и едва не погибает. На нём висит большой долг, который хозяин предлагает оплатить старшему брату…
Качество: BDRip 1080p Сравнение с исходником
Формат: MKV
Видео кодек: H.264
Аудио кодек: AC3, DTS
Видео: 13.8 Mbps,1920x1080, 23.976 кадра/с, 0.278 bpp
Аудио 1: русский, AC3, 192 kbps, 2 ch, 48 kHz [профессиональный многоголосый]
Аудио 2: английский, DTS, 1509 kbps, 6 ch, 48 kHz [оригинал]

Имеются неименованные главы/чаптеры.

MediaInfo
frame I:1001 Avg QP:12.65 size:176158
frame P:55543 Avg QP:14.15 size:107457
frame B:87340 Avg QP:15.43 size: 51009

Общее
Уникальный идентификатор: 214118581073416711045705843049141768209 (0xA115BD1B0B1DF3F891A5DCC8363A1011)
Полное имя: D:VideoBoec ponevole.2011.BDRip.1080p.mkv
Формат: Matroska
Версия формата: Version 4 / Version 2
Размер файла: 11,1 Гбайт
Продолжительность: 1 ч. 40 м.
Общий поток: 15,8 Мбит/сек
Дата кодирования: UTC 2014-11-06 08:34:25
Программа кодирования: mkvmerge v7.3.0 ('Nouages') 64bit built on Oct 22 2014 18:53:34
Библиотека кодирования: libebml v1.3.0 + libmatroska v1.4.1
_STATISTICS_WRITING_APP: mkvmerge v7.3.0 ('Nouages') 64bit built on Oct 22 2014 18:53:34
_STATISTICS_WRITING_DATE_UTC: 2014-11-06 08:34:25
_STATISTICS_TAGS: BPS DURATION NUMBER_OF_FRAMES NUMBER_OF_BYTES
DURATION: 01:40:01.163000000
NUMBER_OF_FRAMES: 562609
NUMBER_OF_BYTES: 1131969376

Видео
Идентификатор: 1
Формат: AVC
Формат/Информация: Advanced Video Codec
Профиль формата: High@L4.1
Параметр CABAC формата: Да
Параметр ReFrames формата: 4 кадра
Идентификатор кодека: V_MPEG4/ISO/AVC
Продолжительность: 1 ч. 40 м.
Битрейт: 13,8 Мбит/сек
Ширина: 1920 пикселей
Высота: 1080 пикселей
Соотношение сторон: 16:9
Режим частоты кадров: Постоянный
Частота кадров: 23,976 кадра/сек
Цветовое пространство: YUV
Субдискретизация насыщенности: 4:2:0
Битовая глубина: 8 бит
Тип развёртки: Прогрессивная
Бит/(Пиксели*Кадры): 0.278
Размер потока: 9,65 Гбайт (87%)
Заголовок: BDRip -- STarankov
Библиотека кодирования: x264 core 142 r2431 ac76440
Настройки программы: cabac=1 / ref=4 / deblock=1:-1:-1 / analyse=0x3:0x113 / me=umh / subme=10 / psy=1 / psy_rd=1.00:0.15 / mixed_ref=1 / me_range=32 / chroma_me=1 / trellis=2 / 8x8dct=1 / cqm=0 / deadzone=21,11 / fast_pskip=1 / chroma_qp_offset=-3 / threads=6 / lookahead_threads=1 / sliced_threads=0 / nr=0 / decimate=1 / interlaced=0 / bluray_compat=0 / constrained_intra=0 / bframes=8 / b_pyramid=2 / b_adapt=2 / b_bias=0 / direct=3 / weightb=1 / open_gop=0 / weightp=2 / keyint=230 / keyint_min=23 / scenecut=40 / intra_refresh=0 / rc_lookahead=40 / rc=crf / mbtree=0 / crf=17.7 / qcomp=0.60 / qpmin=0 / qpmax=69 / qpstep=4 / vbv_maxrate=50000 / vbv_bufsize=62500 / crf_max=0.0 / nal_hrd=none / filler=0 / ip_ratio=1.40 / pb_ratio=1.30 / aq=1:1.00
Язык: English
Default: Да
Forced: Нет
DURATION: 01:40:01.162000000
NUMBER_OF_FRAMES: 143884
NUMBER_OF_BYTES: 10599933069
_STATISTICS_WRITING_APP: mkvmerge v7.3.0 ('Nouages') 64bit built on Oct 22 2014 18:53:34
_STATISTICS_WRITING_DATE_UTC: 2014-11-06 08:34:25
_STATISTICS_TAGS: BPS DURATION NUMBER_OF_FRAMES NUMBER_OF_BYTES

Аудио #1
Идентификатор: 2
Формат: AC-3
Формат/Информация: Audio Coding 3
Профиль формата: Dolby Digital
Расширение режима: CM (complete main)
Параметр Endianness формата: Big
Идентификатор кодека: A_AC3
Продолжительность: 1 ч. 40 м.
Вид битрейта: Постоянный
Битрейт: 192 Кбит/сек
Каналы: 2 канала
Расположение каналов: Front: L R
Частота: 48,0 КГц
Битовая глубина: 16 бит
Метод сжатия: С потерями
Размер потока: 137 Мбайт (1%)
Заголовок: MVO
Язык: Russian
Default: Да
Forced: Нет

Аудио #2
Идентификатор: 3
Формат: DTS
Формат/Информация: Digital Theater Systems
Режим: 16
Параметр Endianness формата: Big
Идентификатор кодека: A_DTS
Продолжительность: 1 ч. 40 м.
Вид битрейта: Постоянный
Битрейт: 1509 Кбит/сек
Каналы: 6 каналов
Расположение каналов: Front: L C R, Side: L R, LFE
Частота: 48,0 КГц
Битовая глубина: 24 бит
Метод сжатия: С потерями
Размер потока: 1,05 Гбайт (10%)
Заголовок: Original
Язык: English
Default: Нет
Forced: Нет

Текст
Идентификатор: 4
Формат: UTF-8
Идентификатор кодека: S_TEXT/UTF8
Идентификатор кодека/Информация: UTF-8 Plain Text
Заголовок: английский
Язык: English
Default: Нет
Forced: Нет

Меню
00:00:00.000::Chapter 01
00:04:42.282::Chapter 02
00:13:08.787::Chapter 03
00:23:04.883::Chapter 04
00:31:43.067::Chapter 05
00:44:59.697::Chapter 06
00:56:42.982::Chapter 07
01:06:04.585::Chapter 08
01:13:10.386::Chapter 09
01:18:55.105::Chapter 10
01:29:56.432::Chapter 11
01:37:14.829::Chapter 12
01:40:01.161::Chapter 13















Рейтинг: 3/5 | Оценок: 1
ПОДЕЛИТЬСЯ
Реклама
Реклама
Рекомендуем к прочтению
Информация:
Уважаемый посетитель, Вы зашли на сайт как незарегистрированный пользователь.
Мы рекомендуем Вам зарегистрироваться либо войти на сайт под своим именем.
Всего комментариев: 0
Информация
Посетители, находящиеся в группе Гости, не могут оставлять комментарии к данной публикации.