×
Реклама
Присоединяйся
ТОП Пользователей
Реклама видна только незарегистрированным пользователям. Зарегистрироваться.
Водный мир / Waterworld (1995) BDRip 720p от НDCLUB
30-08-2014, 21:46
IVAN 1 657
Водный мир / Waterworld (1995) BDRip 720p от НDCLUB
Название: Водный мир
Оригинальное название: Waterworld
Год выхода: 1995
Жанр: фантастика, боевик, приключения
Режиссер: Кевин Рейнольдс, Кевин Костнер / Kevin Reynolds, Kevin Costner
В ролях: Кевин Костнер, Деннис Хоппер, Джинн Трипплхорн, Тина Мажорино, Майкл Джитер, Джек Блэк, Ким Коутс, Чайм Джирафи, Рик Авилес, Р.Д. Колл

О фильме:
В далеком будущем полярные снега растаяли, покрыв всю Землю водой. Авторы погружают нас в фантастический мир немногочисленных людей, живущих на воде, где самым дорогим являются пресная вода, земля, еда, сигареты и т. п.

«Курильщики» убивают, грабят, обращают в рабство - используют двигатели внутреннего сгорания. Все остальные пытаются выжить, кто как может, а Кевин Костнер плавает сам по себе на своей фантастической лодке, но объединяет их всех одно - все они ищут остров.

В одной из колоний живут очень красивая женщина и девочка с татуировкой на спине. А татуировка эта - часть карты, на которой и указан этот остров. Естественно, за ней и охотятся «курильщики»...

Страна: США
Студия: Universal Pictures
Продолжительность: 02:15:11
Перевод: Профессиональный (многоголосый закадровый Киномания) + Двухголосый закадровый (Премьер Видео Фильм) + Одноголосый закадровый (А.Гаврилов) + Одноголосый закадровый (Дмитрий «Гоблин» Пучков) + Одноголосый закадровый (Ю.Живов) + Оригинал

Файл
Кодек: x264, MKV
Качество: BDRip 720p
Видео: 1280x694 at 23.976 fps, x264@L4.1, 2pass, ~6917 kbps avg
[b]Звук:[/b]
Аудио 1: Russian: 48 kHz, AC3, 3/2 (L,C,R,l,r) + LFE ch, ~384.00 kbps avg |Многоголосый закадровый, Киномания|
Аудио 2: Russian: 48 kHz, DTS, 3/2 (L,C,R,l,r) + LFE ch, ~768.00 kbps avg |Двухголосый закадровый, Премьер Видео Фильм|
Аудио 3: Russian: 48 kHz, DTS, 3/2 (L,C,R,l,r) + LFE ch, ~1536.00 kbps avg |Одноголосый закадровый, А.Гаврилов|
Аудио 4: Russian: 48 kHz, DTS, 3/2 (L,C,R,l,r) + LFE ch, ~1536.00 kbps avg |Одноголосый закадровый, Дмитрий «Гоблин» Пучков|
Аудио 5: Russian: 48 kHz, DTS, 3/2 (L,C,R,l,r) + LFE ch, ~1536.00 kbps avg |Одноголосый закадровый, Ю.Живов|
Аудио 6: English: 48 kHz, DTS, 3/2 (L,C,R,l,r) + LFE ch, ~1536.00 kbps avg
Субтитры: Russian, Russian (Гоблин), English, Dan, Dut, Fin, Fre, Ger, Ita, Nor, Por, Spa, Swe

Медиа инфо

General
Complete name: D:ТорентыWaterworld.1995.720p.BluRay.5xRus.Eng.HDCLUB.mkv
Format: Matroska
File size: 13.3 GiB
Duration: 2h 15mn
Overall bit rate: 14.1 Mbps
Movie name: Waterworld (1995) - Release for HDCLUB
Encoded date: UTC 2011-01-15 18:21:32
Writing application: mkvmerge v4.4.0 ('Die Wiederkehr') сборка от Oct 31 2010 21:52:48
Writing library: libebml v1.0.0 + libmatroska v1.0.0

Video
ID: 1
Format: AVC
Format/Info: Advanced Video Codec
Format profile: High@L4.1
Format settings, CABAC: Yes
Format settings, ReFrames: 8 frames
Muxing mode: Container profile=Unknown@4.1
Codec ID: V_MPEG4/ISO/AVC
Duration: 2h 15mn
Bit rate: 6 917 Kbps
Width: 1 280 pixels
Height: 694 pixels
Display aspect ratio: 16:9
Frame rate: 23.976 fps
Color space: YUV
Chroma subsampling: 4:2:0
Bit depth: 8 bits
Scan type: Progressive
Bits/(Pixel*Frame): 0.325
Stream size: 6.27 GiB (47%)
Title: Waterworld (1995) - Release for HDCLUB
Writing library: x264 core 75 r1259M dd026f2
Encoding settings: cabac=1 / ref=8 / deblock=1:-3:-3 / analyse=0x3:0x113 / me=esa / subme=9 / psy=1 / psy_rd=0.9:0.2 / mixed_ref=1 / me_range=32 / chroma_me=1 / trellis=2 / 8x8dct=1 / cqm=0 / deadzone=21,11 / chroma_qp_offset=-3 / threads=6 / nr=0 / decimate=1 / mbaff=0 / bframes=4 / b_pyramid=0 / b_adapt=2 / b_bias=0 / direct=3 / wpredb=1 / keyint=250 / keyint_min=25 / scenecut=40 / rc_lookahead=60 / rc=2pass / mbtree=1 / bitrate=6917 / ratetol=1.0 / qcomp=0.60 / qpmin=10 / qpmax=51 / qpstep=4 / cplxblur=20.0 / qblur=0.5 / vbv_maxrate=50000 / vbv_bufsize=50000 / ip_ratio=1.40 / aq=1:0.70 / pulldown=0 / nal_hrd=0

Audio #1
ID: 2
Format: AC-3
Format/Info: Audio Coding 3
Mode extension: CM (complete main)
Codec ID: A_AC3
Duration: 2h 15mn
Bit rate mode: Constant
Bit rate: 384 Kbps
Channel(s): 6 channels
Channel positions: Front: L C R, Side: L R, LFE
Sampling rate: 48.0 KHz
Bit depth: 16 bits
Stream size: 371 MiB (3%)
Title: AC3 5.1ch 384 kbps - Многоголосый, Киномания
Language: Russian

Audio #2
ID: 3
Format: DTS
Format/Info: Digital Theater Systems
Codec ID: A_DTS
Duration: 2h 15mn
Bit rate mode: Constant
Bit rate: 755 Kbps
Channel(s): 6 channels
Channel positions: Front: L C R, Side: L R, LFE
Sampling rate: 48.0 KHz
Bit depth: 24 bits
Stream size: 730 MiB (5%)
Title: DTS 5.1ch 755 kbps - Двухголосый, Премьер
Language: Russian

Audio #3
ID: 4
Format: DTS
Format/Info: Digital Theater Systems
Codec ID: A_DTS
Duration: 2h 15mn
Bit rate mode: Constant
Bit rate: 1 510 Kbps
Channel(s): 6 channels
Channel positions: Front: L C R, Side: L R, LFE
Sampling rate: 48.0 KHz
Bit depth: 24 bits
Stream size: 1.43 GiB (11%)
Title: DTS 5.1ch 1510 kbps - Одноголосый, А.Гаврилов
Language: Russian

Audio #4
ID: 5
Format: DTS
Format/Info: Digital Theater Systems
Codec ID: A_DTS
Duration: 2h 15mn
Bit rate mode: Constant
Bit rate: 1 510 Kbps
Channel(s): 6 channels
Channel positions: Front: L C R, Side: L R, LFE
Sampling rate: 48.0 KHz
Bit depth: 24 bits
Stream size: 1.43 GiB (11%)
Title: DTS 5.1ch 1510 kbps - Одноголосый, Д.Пучков
Language: Russian

Audio #5
ID: 6
Format: DTS
Format/Info: Digital Theater Systems
Codec ID: A_DTS
Duration: 2h 15mn
Bit rate mode: Constant
Bit rate: 1 510 Kbps
Channel(s): 6 channels
Channel positions: Front: L C R, Side: L R, LFE
Sampling rate: 48.0 KHz
Bit depth: 24 bits
Stream size: 1.43 GiB (11%)
Title: DTS 5.1ch 1510 kbps - Одноголосый, Ю.Живов
Language: Russian

Audio #6
ID: 7
Format: DTS
Format/Info: Digital Theater Systems
Codec ID: A_DTS
Duration: 2h 15mn
Bit rate mode: Constant
Bit rate: 1 510 Kbps
Channel(s): 6 channels
Channel positions: Front: L C R, Side: L R, LFE
Sampling rate: 48.0 KHz
Bit depth: 24 bits
Stream size: 1.43 GiB (11%)
Title: DTS 5.1ch 1510 kbps

Text #1
ID: 8
Format: UTF-8
Codec ID: S_TEXT/UTF8
Codec ID/Info: UTF-8 Plain Text
Language: Russian

Text #2
ID: 9
Format: UTF-8
Codec ID: S_TEXT/UTF8
Codec ID/Info: UTF-8 Plain Text
Title: Goblin
Language: Russian

Text #3
ID: 10
Format: UTF-8
Codec ID: S_TEXT/UTF8
Codec ID/Info: UTF-8 Plain Text

Text #4
ID: 11
Format: UTF-8
Codec ID: S_TEXT/UTF8
Codec ID/Info: UTF-8 Plain Text
Language: Danish

Text #5
ID: 12
Format: UTF-8
Codec ID: S_TEXT/UTF8
Codec ID/Info: UTF-8 Plain Text
Language: Dutch

Text #6
ID: 13
Format: UTF-8
Codec ID: S_TEXT/UTF8
Codec ID/Info: UTF-8 Plain Text
Language: Finnish

Text #7
ID: 14
Format: UTF-8
Codec ID: S_TEXT/UTF8
Codec ID/Info: UTF-8 Plain Text
Language: French

Text #8
ID: 15
Format: UTF-8
Codec ID: S_TEXT/UTF8
Codec ID/Info: UTF-8 Plain Text
Language: German

Text #9
ID: 16
Format: UTF-8
Codec ID: S_TEXT/UTF8
Codec ID/Info: UTF-8 Plain Text
Language: Italian

Text #10
ID: 17
Format: UTF-8
Codec ID: S_TEXT/UTF8
Codec ID/Info: UTF-8 Plain Text
Language: Norwegian

Text #11
ID: 18
Format: UTF-8
Codec ID: S_TEXT/UTF8
Codec ID/Info: UTF-8 Plain Text
Language: Portuguese

Text #12
ID: 19
Format: UTF-8
Codec ID: S_TEXT/UTF8
Codec ID/Info: UTF-8 Plain Text
Language: Spanish

Text #13
ID: 20
Format: UTF-8
Codec ID: S_TEXT/UTF8
Codec ID/Info: UTF-8 Plain Text
Language: Swedish

Menu
00:00:00.000: en:1. Main Title; The New World
00:06:29.012: en:2. Smokers!
00:09:56.052: en:3. A Stranger In Town
00:25:33.865: en:4. Dead Out Of the Sun
00:53:20.739: en:5. Smokers In the Sky
00:59:36.947: en:6. Rough Trade
01:15:04.291: en:7. The Barter Outpost
01:21:22.627: en:8. Down To Dryland
01:25:18.238: en:9. Going Under
01:39:30.255: en:10. The Coming Of The Mariner
01:43:48.595: en:11. No Mercy
01:49:08.041: en:12. Smoke On the Water
01:55:18.536: en:13. The Death of "The Deez"
01:57:06.394: en:14. The Deacon's Last Shot
01:59:40.131: en:15. Home
02:06:31.542: en:16. End Titles

Доп. информация: Сохранены и подписаны оригинальные чаптеры как на Blu-ray.
Дорожка №1. В периоде 01:48:45 - 01:49:35 отсутствовал перевод, сделана вставка с издания Киномании с расширенной версии.
За дорожку №2 спасибо viktor1986t, за №5 AzatH!
Дорожка №3, 4 получена наложением чистого голоса на центр декодированного DTS-HD MA.


Рейтинг: 3/5 | Оценок: 1
ПОДЕЛИТЬСЯ
Реклама
Реклама
Рекомендуем к прочтению
Информация:
Уважаемый посетитель, Вы зашли на сайт как незарегистрированный пользователь.
Мы рекомендуем Вам зарегистрироваться либо войти на сайт под своим именем.
Всего комментариев: 1
Дмитриев написал(а) 6 декабря 2014 14:34
хороший фильм
Информация
Посетители, находящиеся в группе Гости, не могут оставлять комментарии к данной публикации.