×
Реклама
Присоединяйся
ТОП Пользователей
Реклама видна только незарегистрированным пользователям. Зарегистрироваться.
Хоббит: Пустошь Смауга / The Hobbit: The Desolation of Smaug (2013) DVD5
18-05-2014, 08:38
Alexey 0 1 893
Хоббит: Пустошь Смауга / The Hobbit: The Desolation of Smaug (2013) DVD5
Год выпуска: 2013
Производство: США, Новая Зеландия / Metro-Goldwyn-Mayer (MGM), New Line Cinema, WingNut Films
Жанр: Фэнтези, приключения
Перевод: Дублированный [лицензия]
Субтитры: Вшитые отключаемые
Язык субтитров: Английский, эстонский, латышский, литовский, португальский, русский

Режиссер: Питер Джексон
Продюсеры: Кэролинн Каннингэм, Питер Джексон, Фрэнсис Уолш
Актеры: Мартин Фриман, Иэн МакКеллен, Ричард Армитедж, Джеймс Несбитт, Кен Стотт, Грэм МакТавиш, Уильям Кирчер, Стивен Хантер, Дин О Горман, Эйдан Тернер

Описание фильма:
Продолжение путешествия хоббита Бильбо Бэггинса, волшебника Гэндальфа и 13 отважных гномов. Их компания обязана завершить своё путешествие к Одинокой горе. Там они должны встретиться с величайшей опасностью из всех — созданием куда более ужасающим, чем все их прошлые противники, которое проверит на прочность не только их мужество, но крепость их дружбы и правильность выбранного пути, — драконом Смаугом.

Дата мировой премьеры: 2 декабря 2013
Дата российской премьеры: 18 декабря 2013, «Каро-Премьер»
Дата выхода DVD релиза: 17 апреля 2014, «CP Дистрибуция»
 

Продолжительность: 02:34:41
Качество видео: DVD5

Видео: MPEG-2, 720x576@1024x576 (PAL 16:9), ~3800 Кбит/сек
Аудио: AC3 5.1, 384 Кбит/сек [Русский]

DVDInfo:
Title: Локальный диск
Size: 4.37 Gb ( 4 583 126 KBytes ) - DVD-5
Enabled regions: 1, 2, 3, 4, 5, 6, 7, 8

VTS_01 :
Play Length: 02:34:41
Video: PAL 16:9 (720x576) VBR, Auto Pan&Scan
Audio:
Russian (Dolby AC3, 6 ch)
Subtitles:
English
Estonian
Latvian
Lithuanian
Portugues
Russian
Russian
Ukrainian

Menu Video:
PAL 16:9 (720x576) VBR
Auto Letterboxed
Menu Subtitles:
Not specified
Menu Language Unit :
Root Menu

MediaInfo:
Общее
Полное имя : D:ВидеоThe Hobbit. The Desolation of Smaug (2013) DVD5VIDEO_TSVTS_01_1.VOB
Формат : MPEG-PS
Размер файла : 1024 Мбайт
Продолжительность : 32 м.
Режим общего битрейта : Переменный
Общий поток : 4349 Кбит/сек

Видео
Идентификатор : 224 (0xE0)
Формат : MPEG Video
Версия формата : Version 2
Профиль формата : Main@Main
Параметр BVOP формата : Да
Параметр матрицы формата : Выборочная
Параметр GOP формата : M=3, N=12
Продолжительность : 32 м.
Вид битрейта : Переменный
Битрейт : 3879 Кбит/сек
Максимальный битрейт : 7593 Кбит/сек
Ширина : 720 пикселей
Высота : 576 пикселей
Соотношение сторон : 16:9
Частота кадров : 25,000 кадров/сек
Стандарт вещания : PAL
Цветовое пространство : YUV
Субдискретизация насыщенности : 4:2:0
Битовая глубина : 8 бит
Тип развёртки : Чересстрочная
Порядок развёртки : Верхнее поле первое
Метод сжатия : С потерями
Бит/(Пиксели*Кадры) : 0.374
Временной код первого кадра : 00:00:00:00
Оригинал временного кода : Group of pictures header
Размер потока : 913 Мбайт (89%)

Аудио
Идентификатор : 189 (0xBD)-129 (0x81)
Формат : AC-3
Формат/Информация : Audio Coding 3
Расширение режима : CM (complete main)
Параметр Endianness формата : Big
Режим смешивания : DVD-Video
Продолжительность : 32 м.
Вид битрейта : Постоянный
Битрейт : 384 Кбит/сек
Каналы : 6 каналов
Расположение каналов : Front: L C R, Side: L R, LFE
Частота : 48,0 КГц
Битовая глубина : 16 бит
Метод сжатия : С потерями
Размер потока : 90,4 Мбайт (9%)

Меню

Изготовление релиза:
Исходник: Хоббит: Пустошь Смауга / The Hobbit. The Desolation of Smaug (2013) DVD9+DVD5 (R5)
Удалены: дополнительные материалы, предупреждения и заставки, украинская и английская аудиодорожки.
Видео сжато: сжатие конечных титров на 75%, сжатие самого фильма на 25%.
Меню: статичное, на русском языке, недействующие кнопки затерты и закрыты.
Обработка и сжатие: DVD ReMake Pro + DVD Rebuilder + CCE SP2 1.00.01.09 [7 проходов] + Работа с меню (Adobe PhotoShop и MuxMan).

Скриншоты меню:
   

Скриншоты:
    


Рейтинг: 4.5/5 | Оценок: 4
ПОДЕЛИТЬСЯ
Реклама
Реклама
Рекомендуем к прочтению
Информация:
Уважаемый посетитель, Вы зашли на сайт как незарегистрированный пользователь.
Мы рекомендуем Вам зарегистрироваться либо войти на сайт под своим именем.
Всего комментариев: 0
Информация
Посетители, находящиеся в группе Гости, не могут оставлять комментарии к данной публикации.