×
Реклама
Присоединяйся
ТОП Пользователей
Реклама видна только незарегистрированным пользователям. Зарегистрироваться.
Галапагосские острова / Südamerika: Faszination Galapagos (2012) BDRip 1080p | 3D-Video | halfOU
18-12-2013, 16:10
Bender 0 2 235
Галапагосские острова / Südamerika: Faszination Galapagos (2012) BDRip 1080p | 3D-Video | halfOU
Год выпуска: 2012
Страна: Германия (Los Banditos Films, KSM)
Жанр: Документальный, Видовой
Продолжительность: 00:54:22
Перевод: Профессиональный одноголосый закадровый (R5)

Режиссеры: Timo Joh. Mayer, Benjamin Eicher

Описание: Посетите с нами этот маленький, неповторимый архипелаг в Тихом океане, в 1000 км к западу от берегов Южной Америки. Он выглядит захватывающе таинственно и даже иногда нереально, так как кажется, что из-за вулканического происхождения жизнь на нем невозможна. Все же при ближайшем рассмотрении архипелаг изобилует жизнью. Примерно 40 % самых различных видов животных обитают только здесь и поэтому находятся под защитой.

 

Качество: BDRip (by Ash61)
Контейнер: MKV
Формат 3D: Half OverUnder / Вертикальная анаморфная стереопара
Порядок ракурсов: левый ракурс первый
Видео кодек: x264
Аудио кодек: AC3



Видео: AVC / 23,976 fps / 1920х1080p / 19.6 Mbps

Аудио:
#1 - Русский / AC3 / 48 KHz / 5.1 ch / 384 Kbps (MVO - R5)
#2 - Английский / AC3 / 48 KHz / 5.1 ch / 640 Kbps

Субтитры: Отсутствуют

MediaInfo
General
Unique ID : 250059690660749707287819336646755301184 (0xBC1FBE9EF15B8E7A9B715DC9FF4B3740)
Complete name : G:DownloadsSuedamerika.FaszinationGalapagos(3D-halfOU)2012(Ash61).mkv
Format : Matroska
Format version : Version 2
File size : 7.99 GiB
Duration : 54mn 23s
Overall bit rate : 21.0 Mbps
Movie name : Галапагосские острова / Südamerika: Faszination Galapagos (3D) 2012
Encoded date : UTC 2013-07-11 18:57:44
Writing application : mkvmerge v5.8.0 ('No Sleep / Pillow') built on Sep 2 2012 15:37:04
Writing library : libebml v1.2.3 + libmatroska v1.3.0

Video
ID : 1
Format : AVC
Format/Info : Advanced Video Codec
Format profile : High@L4.1
Format settings, CABAC : Yes
Format settings, ReFrames : 4 frames
Codec ID : V_MPEG4/ISO/AVC
Bit rate : 19.6 Mbps
Width : 1 920 pixels
Height : 1 080 pixels
Display aspect ratio : 16:9
Frame rate mode : Variable
Original frame rate : 23.976 fps
Color space : YUV
Chroma subsampling : 4:2:0
Bit depth : 8 bits
Scan type : Progressive
Title : BDRip by Ash61
Writing library : x264 core 119 r2106 07efeb4
Encoding settings : cabac=1 / ref=4 / deblock=1:-1:-1 / analyse=0x3:0x113 / me=umh / subme=9 / psy=1 / psy_rd=1.00:0.15 / mixed_ref=1 / me_range=16 / chroma_me=1 / trellis=2 / 8x8dct=1 / cqm=0 / deadzone=21,11 / fast_pskip=1 / chroma_qp_offset=-3 / threads=12 / sliced_threads=0 / nr=0 / decimate=1 / interlaced=0 / bluray_compat=0 / constrained_intra=0 / bframes=6 / b_pyramid=2 / b_adapt=2 / b_bias=0 / direct=3 / weightb=1 / open_gop=0 / weightp=2 / keyint=250 / keyint_min=23 / scenecut=40 / intra_refresh=0 / rc_lookahead=60 / rc=crf / mbtree=1 / crf=18.0 / qcomp=0.60 / qpmin=10 / qpmax=51 / qpstep=4 / vbv_maxrate=40000 / vbv_bufsize=40000 / crf_max=0.0 / nal_hrd=none / frame-packing=4 / ip_ratio=1.40 / aq=1:0.70
Language : German
Default : Yes
Forced : No

Audio #1
ID : 2
Format : AC-3
Format/Info : Audio Coding 3
Mode extension : CM (complete main)
Format settings, Endianness : Big
Codec ID : A_AC3
Duration : 54mn 23s
Bit rate mode : Constant
Bit rate : 384 Kbps
Channel(s) : 6 channels
Channel positions : Front: L C R, Side: L R, LFE
Sampling rate : 48.0 KHz
Bit depth : 16 bits
Compression mode : Lossy
Stream size : 149 MiB (2%)
Title : Одноголосый закадровый - R5
Language : Russian
Default : Yes
Forced : No

Audio #2
ID : 3
Format : AC-3
Format/Info : Audio Coding 3
Mode extension : CM (complete main)
Format settings, Endianness : Big
Codec ID : A_AC3
Duration : 54mn 23s
Bit rate mode : Constant
Bit rate : 640 Kbps
Channel(s) : 6 channels
Channel positions : Front: L C R, Side: L R, LFE
Sampling rate : 48.0 KHz
Bit depth : 16 bits
Compression mode : Lossy
Stream size : 249 MiB (3%)
Language : English
Default : No
Forced : No

Menu
00:00:00.000 : :1
00:03:07.145 : :2
00:12:28.498 : :3
00:17:02.855 : :4
00:27:28.480 : :5
00:37:59.235 : :6
00:43:12.048 : :7
00:52:22.639 : :8



Рейтинг: 3/5 | Оценок: 1
ПОДЕЛИТЬСЯ
Реклама
Реклама
Рекомендуем к прочтению
Информация:
Уважаемый посетитель, Вы зашли на сайт как незарегистрированный пользователь.
Мы рекомендуем Вам зарегистрироваться либо войти на сайт под своим именем.
Всего комментариев: 0
Информация
Посетители, находящиеся в группе Гости, не могут оставлять комментарии к данной публикации.