×
Реклама
Присоединяйся
ТОП Пользователей
Реклама видна только незарегистрированным пользователям. Зарегистрироваться.
Stand Up [01х01-28] (2013-2014) SATRip, WEB-DLRip
2-06-2014, 17:17
Alexey 0 1 268
Stand Up [01х01-28] (2013-2014) SATRip, WEB-DLRip
Информация о фильме
Название: Stand Up
Год выхода: 2013-2014
Жанр: Юмористическое шоу, Stand up comedy
Ведущий: Руслан Белый
В ролях: Руслан Белый, Слава Комиссаренко, Юлия Ахмедова, Дмитрий Романов, Стас Старовойтов, Тимур Каргинов, Виктор Комаров, Александр Шаляпин

О фильме:
Новое юмористическое шоу в жанре стендап. Здесь люди рассказывают о своих проблемах. Слава богу, что они у нас есть!


Страна: Россия 
Продолжительность: ~ 00:45:00 выпуск
Перевод: Не требуется

Файл
Кодек: XviD
Качество: SATRip, WEB-DLRip
Видео: 720x400, ~1500 Kbps, 25.000 fps
Звук: МР3, 48.0 KHz, 2 ch, 128 Kbps

Инфо-файл

General
Complete name : E:TorrentiStand.Up.2013.SATRipStand.Up.2013.SATRipStand.Up.(01).2013.SATRip.avi
Format : AVI
Format/Info : Audio Video Interleave
File size : 524 MiB
Duration : 44mn 41s
Overall bit rate : 1 639 Kbps
Writing library : VirtualDub build 32706/release
Video #0
ID : 0
Format : MPEG-4 Visual
Format profile : Advanced Simple@L5
Format settings, BVOP : 2
Format settings, QPel : No
Format settings, GMC : No warppoints
Format settings, Matrix : Default (MPEG)
Codec ID : XVID
Codec ID/Hint : XviD
Duration : 44mn 41s
Bit rate : 1 501 Kbps
Width : 720 pixels
Height : 400 pixels
Display aspect ratio : 16:9
Frame rate : 25.000 fps
Color space : YUV
Chroma subsampling : 4:2:0
Bit depth : 8 bits
Scan type : Progressive
Compression mode : Lossy
Bits/(Pixel*Frame) : 0.208
Stream size : 480 MiB (92%)
Writing library : XviD 1.2.1 (UTC 2008-12-04)
Audio #1
ID : 1
Format : MPEG Audio
Format version : Version 1
Format profile : Layer 3
Mode : Joint stereo
Mode extension : MS Stereo
Codec ID : 55
Codec ID/Hint : MP3
Duration : 44mn 41s
Bit rate mode : Constant
Bit rate : 128 Kbps
Channel(s) : 2 channels
Sampling rate : 48.0 KHz
Compression mode : Lossy
Stream size : 40.9 MiB (8%)
Alignment : Split accross interleaves
Interleave, duration : 40 ms (1.00 video frame)
Interleave, preload duration : 500 ms

   


Рейтинг: 3/5 | Оценок: 1
ПОДЕЛИТЬСЯ
Реклама
Реклама
Рекомендуем к прочтению
Информация:
Уважаемый посетитель, Вы зашли на сайт как незарегистрированный пользователь.
Мы рекомендуем Вам зарегистрироваться либо войти на сайт под своим именем.
Всего комментариев: 0
Информация
Посетители, находящиеся в группе Гости, не могут оставлять комментарии к данной публикации.