×
Реклама
Присоединяйся
ТОП Пользователей
Реклама видна только незарегистрированным пользователям. Зарегистрироваться.
Очарование тропического леса / Fascination Rainforest (2012) BDRip 1080p | 3D-Video | halfOU
13-12-2013, 12:23
Bender 1 2 123
Очарование тропического леса / Fascination Rainforest (2012) BDRip 1080p | 3D-Video | halfOU
Год выпуска: 2012
Страна: Германия (Los Banditos Films, KSM)
Жанр: Документальный
Продолжительность: 00:54:00

Перевод: Профессиональный одноголосый закадровый

Режиссеры: Timo Joh. Mayer, Benjamin Eicher

Описание: Вас ожидает захватывающее путешествие вглубь настоящего тропического леса. Загадочный мир, затерянный в самом сердце джунглей предстанет во всей красе и многообразии сквозь призму всех форм жизни.



Премьера: 19 ноября 2012


 



Качество: BDRip (by Ash61)
Контейнер: MKV
Формат 3D: Half OverUnder / Вертикальная анаморфная стереопара
Порядок ракурсов: левый ракурс первый
Видео кодек: x264
Аудио кодек: AC3



Видео: AVC / 23,976 fps / 1920х1080p / 17.9 Mbps
Аудио:
#1 - Русский / AC3 / 48 KHz / 5.1 ch / 640 Kbps (VO - BD 3D Rus)
#2 - Английский / AC3 / 48 KHz / 5.1 ch / 640 Kbps
Субтитры: Отсутствуют

MediaInfo
General
Unique ID : 228206983161610864209950368446631943501 (0xABAF10F508B3BF31952376DB71E09D4D)
Complete name : E:DownloadsRainforest(3D-halfOU)2012(Ash61).mkv
Format : Matroska
Format version : Version 2
File size : 7.40 GiB
Duration : 54mn 0s
Overall bit rate : 19.6 Mbps
Movie name : Тропический лес / Rainforest (3D) 2012
Encoded date : UTC 2013-08-11 08:34:03
Writing application : mkvmerge v5.8.0 ('No Sleep / Pillow') built on Sep 2 2012 15:37:04
Writing library : libebml v1.2.3 + libmatroska v1.3.0

Video
ID : 1
Format : AVC
Format/Info : Advanced Video Codec
Format profile : High@L4.1
Format settings, CABAC : Yes
Format settings, ReFrames : 4 frames
Codec ID : V_MPEG4/ISO/AVC
Duration : 54mn 0s
Bit rate : 17.9 Mbps
Width : 1 920 pixels
Height : 1 080 pixels
Display aspect ratio : 16:9
Frame rate mode : Constant
Frame rate : 23.976 fps
Color space : YUV
Chroma subsampling : 4:2:0
Bit depth : 8 bits
Scan type : Progressive
Bits/(Pixel*Frame) : 0.361
Stream size : 6.77 GiB (91%)
Title : BDRip by Ash61
Writing library : x264 core 129 r2245 bc13772
Encoding settings : cabac=1 / ref=4 / deblock=1:-1:-1 / analyse=0x3:0x113 / me=umh / subme=9 / psy=1 / psy_rd=1.00:0.15 / mixed_ref=1 / me_range=32 / chroma_me=1 / trellis=2 / 8x8dct=1 / cqm=0 / deadzone=21,11 / fast_pskip=1 / chroma_qp_offset=-3 / threads=12 / lookahead_threads=2 / sliced_threads=0 / nr=0 / decimate=1 / interlaced=0 / bluray_compat=0 / constrained_intra=0 / bframes=10 / b_pyramid=2 / b_adapt=2 / b_bias=0 / direct=3 / weightb=1 / open_gop=0 / weightp=2 / keyint=250 / keyint_min=23 / scenecut=40 / intra_refresh=0 / rc_lookahead=60 / rc=crf / mbtree=1 / crf=20.0 / qcomp=0.70 / qpmin=10 / qpmax=69 / qpstep=4 / vbv_maxrate=40000 / vbv_bufsize=30000 / crf_max=0.0 / nal_hrd=none / frame-packing=4 / ip_ratio=1.40 / aq=1:0.70
Language : German
Default : Yes
Forced : No

Audio #1
ID : 2
Format : AC-3
Format/Info : Audio Coding 3
Mode extension : CM (complete main)
Format settings, Endianness : Big
Codec ID : A_AC3
Duration : 54mn 0s
Bit rate mode : Constant
Bit rate : 640 Kbps
Channel(s) : 6 channels
Channel positions : Front: L C R, Side: L R, LFE
Sampling rate : 48.0 KHz
Bit depth : 16 bits
Compression mode : Lossy
Stream size : 247 MiB (3%)
Title : Одноголосый закадровый - BD3D
Language : Russian
Default : Yes
Forced : No

Audio #2
ID : 3
Format : AC-3
Format/Info : Audio Coding 3
Mode extension : CM (complete main)
Format settings, Endianness : Big
Codec ID : A_AC3
Duration : 54mn 0s
Bit rate mode : Constant
Bit rate : 640 Kbps
Channel(s) : 6 channels
Channel positions : Front: L C R, Side: L R, LFE
Sampling rate : 48.0 KHz
Bit depth : 16 bits
Compression mode : Lossy
Stream size : 247 MiB (3%)
Language : English
Default : No
Forced : No

Menu
00:00:00.000 : :1
00:05:57.691 : :2
00:12:42.011 : :3
00:22:32.184 : :4
00:27:03.038 : :5
00:33:48.902 : :6
00:40:49.155 : :7
00:48:21.732 : :8

   


Рейтинг: 3/5 | Оценок: 3
ПОДЕЛИТЬСЯ
Реклама
Реклама
Рекомендуем к прочтению
Информация:
Уважаемый посетитель, Вы зашли на сайт как незарегистрированный пользователь.
Мы рекомендуем Вам зарегистрироваться либо войти на сайт под своим именем.
Всего комментариев: 1
igor1pin написал(а) 15 мая 2015 10:19
спасибочки!
Информация
Посетители, находящиеся в группе Гости, не могут оставлять комментарии к данной публикации.