×
Реклама
Присоединяйся
ТОП Пользователей
Реклама видна только незарегистрированным пользователям. Зарегистрироваться.
Ку! Кин-дза-дза (2013) BDRip 1080p | 3D-Video
13-12-2013, 12:12
Bender 0 2 014
Ку! Кин-дза-дза (2013) BDRip 1080p | 3D-Video
Год выпуска: 2013
Страна: Россия (Кинокомпания CTB, Первый канал, Югра-фильм, Ритм)
Жанр: Мультфильм, Фантастика, Комедия
Продолжительность: 01:36:27
Перевод: Не требуется

Режиссеры: Георгий Данелия, Татьяна Ильина



Роли озвучивали:

.............
Владимир Николаевич Чижов - Николай Губенко
Толик - Иван Цехмистренко
Уэф - Андрей Леонов
Кыр - Алексей Колган
робот Абрадокс - Александр Адабашьян
Ромашка, Диоген - Георгий Данелия
карусельщик Ык - Игорь Кваша
Трац - Вахтанг Кикабидзе
Фрося - Галина Данелия-Юркова
мать Толика - Полина Кутепова
... - Евгений Стеблов



Описание: Начинающий диджей Толик и всемирно известный виолончелист Владимир Чижов встречают на шумной московской улице босого человека. Нажав на кнопку странной машинки, герои перемещаются на пустынную планету Плюк. Анимационный ремейк любимого всеми фильма «Кин-дза-дза!» не менее увлекательно и смешно, чем оригинал, рассказывает о приключениях Толика и дяди Вовы. В этом мире песка жители делятся на две категории — пацаков и чатлан, простая спичка обладает невероятной ценностью, а людей встречают и провожают по цвету штанов.

Знаете ли вы, что...:
Андрей Леонов озвучивает Уэфа, которого в оригинальной картине сыграл его отец Евгений Леонов.
Мультфильм был запущен в производство 12 февраля 2005 года. Работа над картиной затянулась из-за прекращения финансирования в конце 2008 года и последовавших судебных разбирательств. Фильм был закончен в 2012 году благодаря распоряжению Правительства РФ Министерству культуры. Актер, который озвучил Толика, за время съёмок успел закончить школу, уйти в армию и вернуться из неё.

Премьера: 11 апреля 2013
Релиз на DVD и Blu-Ray: 14 мая 2013
Бюджет: 140 000 000 руб.


 





Качество: BDRip (by Ash61)
Контейнер: MKV
Формат 3D: Half OverUnder / Вертикальная анаморфная стереопара
Порядок ракурсов: левый ракурс первый
Видео кодек: x264
Аудио кодек: AC3



Видео: AVC / 23,976 fps / 1920х1080p / 4 175 Kbps
Аудио: Русский / AC3 / 48 KHz / 5.1 ch / 640 Kbps (Оригинал - BD 3D Rus)
Субтитры: English Full внешние (SRT UTF-8)

Лог и MediaInfo
General
Unique ID : 178595594555326336518588739396228319238 (0x865C42A63AFB0367A73B9821F5CF8806)
Complete name : G:DownloadsKu.KinDzaDza(3D)2013.halfOU(Ash61)Ku.KinDzaDza(3D)2013.halfOU(Ash61).mkv
Format : Matroska
Format version : Version 2
File size : 3.31 GiB
Duration : 1h 36mn
Overall bit rate : 4 913 Kbps
Movie name : Ку! Кин-Дза-Дза (3D) 2013 (by Ash61)
Encoded date : UTC 2013-05-15 02:04:27
Writing application : mkvmerge v5.8.0 ('No Sleep / Pillow') built on Sep 2 2012 15:37:04
Writing library : libebml v1.2.3 + libmatroska v1.3.0

Video
ID : 1
Format : AVC
Format/Info : Advanced Video Codec
Format profile : High@L4.1
Format settings, CABAC : Yes
Format settings, ReFrames : 4 frames
Codec ID : V_MPEG4/ISO/AVC
Duration : 1h 36mn
Bit rate : 4 175 Kbps
Width : 1 920 pixels
Height : 1 080 pixels
Display aspect ratio : 16:9
Frame rate mode : Constant
Frame rate : 23.976 fps
Color space : YUV
Chroma subsampling : 4:2:0
Bit depth : 8 bits
Scan type : Progressive
Bits/(Pixel*Frame) : 0.084
Stream size : 2.81 GiB (85%)
Title : BDRip by Ash61
Writing library : x264 core 129 r2245 bc13772
Encoding settings : cabac=1 / ref=4 / deblock=1:-3:-3 / analyse=0x3:0x113 / me=umh / subme=9 / psy=1 / psy_rd=1.00:0.15 / mixed_ref=1 / me_range=32 / chroma_me=1 / trellis=2 / 8x8dct=1 / cqm=0 / deadzone=21,11 / fast_pskip=1 / chroma_qp_offset=-3 / threads=12 / lookahead_threads=2 / sliced_threads=0 / nr=0 / decimate=1 / interlaced=0 / bluray_compat=0 / constrained_intra=0 / bframes=6 / b_pyramid=2 / b_adapt=2 / b_bias=0 / direct=3 / weightb=1 / open_gop=0 / weightp=2 / keyint=250 / keyint_min=23 / scenecut=40 / intra_refresh=0 / rc_lookahead=60 / rc=crf / mbtree=1 / crf=17.0 / qcomp=0.70 / qpmin=0 / qpmax=69 / qpstep=4 / vbv_maxrate=40000 / vbv_bufsize=30000 / crf_max=0.0 / nal_hrd=none / frame-packing=4 / ip_ratio=1.40 / aq=1:0.70
Language : Russian
Default : Yes
Forced : No

Audio
ID : 2
Format : AC-3
Format/Info : Audio Coding 3
Mode extension : CM (complete main)
Format settings, Endianness : Big
Codec ID : A_AC3
Duration : 1h 36mn
Bit rate mode : Constant
Bit rate : 640 Kbps
Channel(s) : 6 channels
Channel positions : Front: L C R, Side: L R, LFE
Sampling rate : 48.0 KHz
Bit depth : 16 bits
Compression mode : Lossy
Stream size : 442 MiB (13%)
Title : Оригинал - BD 3D Rus
Language : Russian
Default : Yes
Forced : Yes

Menu
00:00:00.000 : :1
00:06:27.679 : :2
00:11:31.274 : :3
00:15:58.541 : :4
00:20:26.016 : :5
00:27:15.092 : :6
00:32:28.655 : :7
00:39:43.673 : :8
00:48:43.879 : :9
00:56:26.133 : :10
01:00:42.639 : :11
01:07:32.423 : :12
01:15:52.381 : :13
01:21:46.276 : :14
01:27:33.999 : :15
01:33:13.755 : :16

  


Рейтинг: 4.2/5 | Оценок: 6
ПОДЕЛИТЬСЯ
Реклама
Реклама
Рекомендуем к прочтению
Информация:
Уважаемый посетитель, Вы зашли на сайт как незарегистрированный пользователь.
Мы рекомендуем Вам зарегистрироваться либо войти на сайт под своим именем.
Всего комментариев: 0
Информация
Посетители, находящиеся в группе Гости, не могут оставлять комментарии к данной публикации.