×
Реклама
Присоединяйся
ТОП Пользователей
Реклама видна только незарегистрированным пользователям. Зарегистрироваться.
Тачки 2 / Cars 2 (2011) BDRip 1080p от Youtracker | 3D-Video
5-12-2013, 09:10
Bender 1 4 486
Тачки 2 / Cars 2 (2011) BDRip 1080p от Youtracker | 3D-Video
  • Страна: США
  • Студия: Pixar Animation Studios, Walt Disney Pictures
  • Жанр: мультфильм, боевик, триллер, комедия, приключения, семейный
  • Год выпуска: 2011
  • Продолжительность: 01:47:01

  • Перевод: русский дубляж [лицензия, BD CEE] + украинский дубляж [лицензия, BD CEE]
  • Оригинальная аудиодорожка: английская
  • Русские субтитры: есть
  • Режиссер: Джон Лассетер, Брэд Льюис / John Lasseter, Brad Lewis
  • Роли озвучивали: Оуэн Уилсон, Ларри Кейбл Гай, Майкл Кейн, Эмили Мортимер, Эдди Иззард, Джон Туртурро, Брент Мусбургер, Джо Мантенья, Томас Кречманн, Питер Джекобсон
  • Роли дублировали: Дмитрий Харатьян, Сергей Кузнецов, Леонид Каневский, Жанна Фриске, Леонид Ярмольник


    Молния МакКуин и его друг Мэтр отправляются в международное путешествие — когда МакКуин получает шанс участвовать в соревнованиях для самых быстрых машин в мире, Мировом Гран-При. Этапы этих престижных гонок заведут друзей в Токио, на набережные Парижа, на побережье Италии, и на улицы туманного Лондона.

  • Качество: BDRip 1080p
  • Контейнер: MKV
  • Формат 3D: Half OverUnder / Вертикальная анаморфная стереопара
  • Порядок ракурсов: левый ракурс первый
  • Поддержка автоматического запуска 3D на вашем TV (frame paking): нет
  • Видео кодек: x264
  • Аудио кодек: AC3
  • Видео: AVC / High@L4.1 / 2 pass / 23,976 fps / 1920x1080p / 11,6 Mbps / 0.233
  • Аудио 1: AC3 / 5.1 ch / 640 kbps / Русский дубляж [BD CEE]
  • Аудио 2: AC3 / 5.1 ch / 640 kbps / Украинский дубляж [BD CEE]
  • Аудио 3: AC3 / 5.1 ch / 640 kbps / Английский original [BD CEE]
  • Субтитры: [softsub SRT]
    Русские Forced (выбрано по умолчанию)
    Русские Full
    Русские Full, Voronine
    Украинские Forced
    Украинские Full
    Английские Forced
    Английские Full
  • Дополнительно: Сохранены оригинальные чаптеры как на Blu-ray
  • Рип (видеоряд) от: HDMaNiAcS





  • MediaInfo:
  • Общее
  • Уникальный идентификатор : 197848162412148043475630211917224820504 (0x94D82B87F2BB8629A85C880D42D33F18)
  • Полное имя : F:Скачка торрентCars.2.3D.2011.BDRip1080p.halfOU(HDMaNiAcS).mkv
  • Формат : Matroska
  • Версия формата : Version 4 / Version 2
  • Размер файла : 10,0 Гбайт
  • Продолжительность : 1 ч. 47 м.
  • Общий поток : 13,4 Мбит/сек
  • Название фильма : Cars 2 3D (2011) by HDMaNiAcS
  • Дата кодирования : UTC 2013-03-11 06:12:37
  • Программа кодирования : mkvmerge v6.1.0 ('Old Devil') built on Mar 2 2013 14:32:37
  • Библиотека кодирования : libebml v1.3.0 + libmatroska v1.4.0

  • Видео
  • Идентификатор : 1
  • Формат : AVC
  • Формат/Информация : Advanced Video Codec
  • Профиль формата : High@L4.1
  • MultiView_Count : 2
  • MultiView_Layout : Top-Bottom (left eye first)
  • Параметр CABAC формата : Да
  • Параметр ReFrames формата : 4 кадра
  • Идентификатор кодека : V_MPEG4/ISO/AVC
  • Продолжительность : 1 ч. 47 м.
  • Битрейт : 11,6 Мбит/сек
  • Ширина : 1920 пикселей
  • Высота : 1080 пикселей
  • Соотношение сторон : 16:9
  • Режим частоты кадров : Постоянный
  • Частота кадров : 23,976 кадра/сек
  • Цветовое пространство : YUV
  • Субдискретизация насыщенности : 4:2:0
  • Битовая глубина : 8 бит
  • Тип развёртки : Прогрессивная
  • Бит/(Пиксели*Кадры) : 0.233
  • Размер потока : 8,41 Гбайт (84%)
  • Заголовок : Cars 2 3D (2011)
  • Библиотека кодирования : x264 core 129 r2245 bc13772
  • Настройки программы : cabac=1 / ref=4 / deblock=1:-3:-3 / analyse=0x3:0x113 / me=tesa / subme=11 / psy=1 / psy_rd=0.90:0.00 / mixed_ref=1 / me_range=32 / chroma_me=1 / trellis=2 / 8x8dct=1 / cqm=0 / deadzone=21,11 / fast_pskip=0 / chroma_qp_offset=-2 / threads=12 / lookahead_threads=2 / sliced_threads=0 / nr=0 / decimate=0 / interlaced=0 / bluray_compat=0 / constrained_intra=0 / bframes=8 / b_pyramid=2 / b_adapt=2 / b_bias=0 / direct=3 / weightb=1 / open_gop=0 / weightp=2 / keyint=250 / keyint_min=23 / scenecut=40 / intra_refresh=0 / rc=2pass / mbtree=0 / bitrate=11600 / ratetol=1.0 / qcomp=0.70 / qpmin=10 / qpmax=69 / qpstep=4 / cplxblur=20.0 / qblur=0.5 / ip_ratio=1.40 / pb_ratio=1.30 / aq=1:0.70
  • Язык : English
  • Default : Да
  • Forced : Нет

  • Аудио #1
  • Идентификатор : 2
  • Формат : AC-3
  • Формат/Информация : Audio Coding 3
  • Расширение режима : CM (complete main)
  • Параметр Endianness формата : Big
  • Идентификатор кодека : A_AC3
  • Продолжительность : 1 ч. 47 м.
  • Вид битрейта : Постоянный
  • Битрейт : 640 Кбит/сек
  • Каналы : 6 каналов
  • Расположение каналов : Front: L C R, Side: L R, LFE
  • Частота : 48,0 КГц
  • Битовая глубина : 16 бит
  • Метод сжатия : С потерями
  • Размер потока : 490 Мбайт (5%)
  • Заголовок : AC3 / 5.1 ch / 640 kbps / Русский дубляж, BD CEE
  • Язык : Russian
  • Default : Да
  • Forced : Нет

  • Аудио #2
  • Идентификатор : 3
  • Формат : AC-3
  • Формат/Информация : Audio Coding 3
  • Расширение режима : CM (complete main)
  • Параметр Endianness формата : Big
  • Идентификатор кодека : A_AC3
  • Продолжительность : 1 ч. 47 м.
  • Вид битрейта : Постоянный
  • Битрейт : 640 Кбит/сек
  • Каналы : 6 каналов
  • Расположение каналов : Front: L C R, Side: L R, LFE
  • Частота : 48,0 КГц
  • Битовая глубина : 16 бит
  • Метод сжатия : С потерями
  • Размер потока : 490 Мбайт (5%)
  • Заголовок : AC3 / 5.1 ch / 640 kbps / Украинский дубляж, BD CEE
  • Язык : Ukrainian
  • Default : Нет
  • Forced : Нет

  • Аудио #3
  • Идентификатор : 4
  • Формат : AC-3
  • Формат/Информация : Audio Coding 3
  • Расширение режима : CM (complete main)
  • Параметр Endianness формата : Big
  • Идентификатор кодека : A_AC3
  • Продолжительность : 1 ч. 47 м.
  • Вид битрейта : Постоянный
  • Битрейт : 640 Кбит/сек
  • Каналы : 6 каналов
  • Расположение каналов : Front: L C R, Side: L R, LFE
  • Частота : 48,0 КГц
  • Битовая глубина : 16 бит
  • Метод сжатия : С потерями
  • Размер потока : 490 Мбайт (5%)
  • Заголовок : AC3 / 5.1 ch / 640 kbps / Английский original, BD CEE
  • Язык : English
  • Default : Нет
  • Forced : Нет

  • Текст #1
  • Идентификатор : 5
  • Формат : UTF-8
  • Идентификатор кодека : S_TEXT/UTF8
  • Идентификатор кодека/Информация : UTF-8 Plain Text
  • Заголовок : Forced
  • Язык : Russian
  • Default : Да
  • Forced : Нет

  • Текст #2
  • Идентификатор : 6
  • Формат : UTF-8
  • Идентификатор кодека : S_TEXT/UTF8
  • Идентификатор кодека/Информация : UTF-8 Plain Text
  • Заголовок : Full
  • Язык : Russian
  • Default : Нет
  • Forced : Нет

  • Текст #3
  • Идентификатор : 7
  • Формат : UTF-8
  • Идентификатор кодека : S_TEXT/UTF8
  • Идентификатор кодека/Информация : UTF-8 Plain Text
  • Заголовок : Full voronine
  • Язык : Russian
  • Default : Нет
  • Forced : Нет

  • Текст #4
  • Идентификатор : 8
  • Формат : UTF-8
  • Идентификатор кодека : S_TEXT/UTF8
  • Идентификатор кодека/Информация : UTF-8 Plain Text
  • Заголовок : Forced
  • Язык : Ukrainian
  • Default : Нет
  • Forced : Нет

  • Текст #5
  • Идентификатор : 9
  • Формат : UTF-8
  • Идентификатор кодека : S_TEXT/UTF8
  • Идентификатор кодека/Информация : UTF-8 Plain Text
  • Заголовок : Full
  • Язык : Ukrainian
  • Default : Нет
  • Forced : Нет

  • Текст #6
  • Идентификатор : 10
  • Формат : UTF-8
  • Идентификатор кодека : S_TEXT/UTF8
  • Идентификатор кодека/Информация : UTF-8 Plain Text
  • Заголовок : Forced
  • Язык : English
  • Default : Нет
  • Forced : Нет

  • Текст #7
  • Идентификатор : 11
  • Формат : UTF-8
  • Идентификатор кодека : S_TEXT/UTF8
  • Идентификатор кодека/Информация : UTF-8 Plain Text
  • Заголовок : Full
  • Язык : English
  • Default : Нет
  • Forced : Нет

  • Меню
  • 00:00:00.000 : en:00:00:00.000
  • 00:01:29.172 : en:00:01:29.172
  • 00:04:47.579 : en:00:04:47.579
  • 00:07:43.672 : en:00:07:43.672
  • 00:12:07.894 : en:00:12:07.894
  • 00:17:48.943 : en:00:17:48.943
  • 00:20:01.325 : en:00:20:01.325
  • 00:22:51.537 : en:00:22:51.537
  • 00:26:34.634 : en:00:26:34.634
  • 00:30:30.161 : en:00:30:30.161
  • 00:32:41.960 : en:00:32:41.960
  • 00:34:13.509 : en:00:34:13.509
  • 00:37:15.566 : en:00:37:15.566
  • 00:40:44.150 : en:00:40:44.150
  • 00:42:53.154 : en:00:42:53.154
  • 00:46:18.567 : en:00:46:18.567
  • 00:46:57.940 : en:00:46:57.940
  • 00:49:48.527 : en:00:49:48.527
  • 00:53:56.399 : en:00:53:56.399
  • 00:54:57.252 : en:00:54:57.252
  • 00:57:36.202 : en:00:57:36.202
  • 00:59:27.730 : en:00:59:27.730
  • 01:02:16.941 : en:01:02:16.941
  • 01:05:56.285 : en:01:05:56.285
  • 01:12:31.764 : en:01:12:31.764
  • 01:14:05.899 : en:01:14:05.899
  • 01:15:24.186 : en:01:15:24.186
  • 01:21:12.992 : en:01:21:12.992
  • 01:23:22.247 : en:01:23:22.247
  • 01:29:06.924 : en:01:29:06.924
  • 01:31:48.127 : en:01:31:48.127
  • 01:32:41.222 : en:01:32:41.222
  • 01:38:18.600 : en:01:38:18.600

  •    


  • Рейтинг: 4.7/5 | Оценок: 9
    ПОДЕЛИТЬСЯ
    Реклама
    Реклама
    Рекомендуем к прочтению
    Информация:
    Уважаемый посетитель, Вы зашли на сайт как незарегистрированный пользователь.
    Мы рекомендуем Вам зарегистрироваться либо войти на сайт под своим именем.
    Всего комментариев: 1
    kisacom86 написал(а) 18 февраля 2015 10:11
    норм спасибо
    Информация
    Посетители, находящиеся в группе Гости, не могут оставлять комментарии к данной публикации.