×
Реклама
Присоединяйся
ТОП Пользователей
Реклама видна только незарегистрированным пользователям. Зарегистрироваться.
Папуа 3D: Секретный остров каннибалов / Papua 3D (2012) BDRip 1080p | 3D-Video | halfOU | Лицензия
5-12-2013, 04:48
Bender 0 2 429
Папуа 3D: Секретный остров каннибалов / Papua 3D (2012) BDRip 1080p | 3D-Video | halfOU | Лицензия
Год выпуска: 2012
Страна: Германия (3D-Media International)
Жанр: Документальный, Видовой
Продолжительность: 01:01:21

Перевод: Профессиональный одноголосый закадровый (BD3D)

Режиссер: Питер Лорд / Peter Lord

Описание: Мы много знаем о доисторическом периоде, но увидеть «каменный век» своими глазами, можно совершив видеопутешествие в один из самых загадочных уголков Земли — Папуа Новую Гвинею. Каменные топоры и наконечники, уникальная природа джунглей, десятки племен, когда-то славившихся каннибализмом — это обычная жизнь Гвинеи, которая у цивилизованного человека вызывает острый интерес и прилив адреналина. Голубые лагуны и пустынные пляжи, не знающие границ, непременно восхитят вас своей красотой, а фантастическое многообразие животного мира, усилит впечатления от просмотра.



Релиз на Blu-Ray (DVD): 15 мая 2013 (27 мая 2013)

 



Качество: BDRip (by Ash61)
Контейнер: MKV
Формат 3D: Half OverUnder / Вертикальная анаморфная стереопара
Порядок ракурсов: левый ракурс первый
Видео кодек: x264
Аудио кодек: AC3



Видео: AVC / 23,976 fps / 1920х1080p / 16,9 Mbps

Аудио:
#1 - Русский / AC3 / 48 KHz / 5.1 ch / 640 Kbps (VO - BD3D)
#2 - Английский / AC3 / 48 KHz / 5.1 ch / 640 Kbps
#3 - Instrumental / AC3 / 48 KHz / 5.1 ch / 640 Kbps

Субтитры: Отсутствуют

MediaInfo
General
Unique ID : 216424906655917002238759220763957486312 (0xA2D1EBBC6E6D43228121A9F24F0162E8)
Complete name : E:DownloadsPapua(3D-halfOU)2013(Ash61).mkv
Format : Matroska
Format version : Version 2
File size : 8.24 GiB
Duration : 1h 1mn
Overall bit rate : 19.2 Mbps
Movie name : Папуа: Тайный остров каннибалов / Papua: The Secret Island of the Cannibals (3D) 2012 (by Ash61)
Encoded date : UTC 2013-08-09 18:01:53
Writing application : mkvmerge v5.8.0 ('No Sleep / Pillow') built on Sep 2 2012 15:37:04
Writing library : libebml v1.2.3 + libmatroska v1.3.0

Video
ID : 1
Format : AVC
Format/Info : Advanced Video Codec
Format profile : High@L4.1
Format settings, CABAC : Yes
Format settings, ReFrames : 4 frames
Codec ID : V_MPEG4/ISO/AVC
Duration : 1h 1mn
Bit rate : 16.9 Mbps
Width : 1 920 pixels
Height : 1 080 pixels
Display aspect ratio : 16:9
Frame rate mode : Constant
Frame rate : 23.976 fps
Color space : YUV
Chroma subsampling : 4:2:0
Bit depth : 8 bits
Scan type : Progressive
Bits/(Pixel*Frame) : 0.340
Stream size : 7.25 GiB (88%)
Title : BDRip by Ash61
Writing library : x264 core 129 r2245 bc13772
Encoding settings : cabac=1 / ref=4 / deblock=1:-1:-1 / analyse=0x3:0x113 / me=umh / subme=9 / psy=1 / psy_rd=1.00:0.15 / mixed_ref=1 / me_range=32 / chroma_me=1 / trellis=2 / 8x8dct=1 / cqm=0 / deadzone=21,11 / fast_pskip=1 / chroma_qp_offset=-3 / threads=12 / lookahead_threads=2 / sliced_threads=0 / nr=0 / decimate=1 / interlaced=0 / bluray_compat=0 / constrained_intra=0 / bframes=8 / b_pyramid=2 / b_adapt=2 / b_bias=0 / direct=3 / weightb=1 / open_gop=0 / weightp=2 / keyint=250 / keyint_min=23 / scenecut=40 / intra_refresh=0 / rc_lookahead=60 / rc=crf / mbtree=1 / crf=18.0 / qcomp=0.70 / qpmin=10 / qpmax=69 / qpstep=4 / vbv_maxrate=40000 / vbv_bufsize=30000 / crf_max=0.0 / nal_hrd=none / frame-packing=4 / ip_ratio=1.40 / aq=1:0.70
Default : Yes
Forced : No

Audio #1
ID : 2
Format : AC-3
Format/Info : Audio Coding 3
Mode extension : CM (complete main)
Format settings, Endianness : Big
Codec ID : A_AC3
Duration : 1h 1mn
Bit rate mode : Constant
Bit rate : 640 Kbps
Channel(s) : 6 channels
Channel positions : Front: L C R, Side: L R, LFE
Sampling rate : 48.0 KHz
Bit depth : 16 bits
Compression mode : Lossy
Stream size : 281 MiB (3%)
Title : Дубляж - BD3D
Language : Russian
Default : Yes
Forced : No

Audio #2
ID : 3
Format : AC-3
Format/Info : Audio Coding 3
Mode extension : CM (complete main)
Format settings, Endianness : Big
Codec ID : A_AC3
Duration : 1h 1mn
Bit rate mode : Constant
Bit rate : 640 Kbps
Channel(s) : 6 channels
Channel positions : Front: L C R, Side: L R, LFE
Sampling rate : 48.0 KHz
Bit depth : 16 bits
Compression mode : Lossy
Stream size : 281 MiB (3%)
Language : English
Default : No
Forced : No

Audio #3
ID : 4
Format : AC-3
Format/Info : Audio Coding 3
Mode extension : CM (complete main)
Format settings, Endianness : Big
Codec ID : A_AC3
Duration : 1h 1mn
Bit rate mode : Constant
Bit rate : 640 Kbps
Channel(s) : 6 channels
Channel positions : Front: L C R, Side: L R, LFE
Sampling rate : 48.0 KHz
Bit depth : 16 bits
Compression mode : Lossy
Stream size : 281 MiB (3%)
Title : Инструментал
Default : No
Forced : No

Menu
00:00:00.000 : :1
00:09:54.969 : :2
00:35:45.185 : :3
00:48:14.850 : :4

    


Рейтинг: 4.5/5 | Оценок: 4
ПОДЕЛИТЬСЯ
Реклама
Реклама
Рекомендуем к прочтению
Информация:
Уважаемый посетитель, Вы зашли на сайт как незарегистрированный пользователь.
Мы рекомендуем Вам зарегистрироваться либо войти на сайт под своим именем.
Всего комментариев: 0
Информация
Посетители, находящиеся в группе Гости, не могут оставлять комментарии к данной публикации.