×
Реклама
Присоединяйся
ТОП Пользователей
Реклама видна только незарегистрированным пользователям. Зарегистрироваться.
Природа мира: Красивейшие места Европы / World's Nature: Europe's Most Beautiful Places (2013) BDRip 1080p | 3D-Video | halfOU
5-12-2013, 04:31
Bender 0 1 563
Природа мира: Красивейшие места Европы / World's Nature: Europe's Most Beautiful Places (2013) BDRip 1080p | 3D-Video | halfOU
Год выпуска: 2013
Студии: 3D Media International, Tech Vision Production
Жанр: Документальный
Продолжительность: 00:53:10

Перевод: Профессиональный дублированный

Режиссер: Arthur MacMahon

Описание: Захватывающее путешествие вглубь красивейших уголков природы в формате 3D откроет новые грани многообразия удивительной жизни нашей планеты. Уникальное стереоскопическое изображение позволит мгновенно перенестись в потрясающую воображение реальность, понаблюдать за животными в их естественной среде обитания, ощутить величие и хрупкость окружающего нас мира и насладиться неповторимыми моментами невероятно яркого и запоминающегося приключения.



 



Качество: BDRip (by Ash61 с BD 3D Eng)
Контейнер: MKV
Формат 3D: Half OverUnder / Вертикальная анаморфная стереопара
Порядок ракурсов: левый ракурс первый
Видео кодек: x264
Аудио кодек: AC3



Видео: AVC / 23,976 fps / 1920х1080p / 14.0 Mbps

Аудио:
#1 - Русский / AC3 / 48 KHz / 5.1 ch / 640 Kbps (Дубляж - BD 3D Rus)
#2 - Английский / AC3 / 48 KHz / 5.1 ch / 640 Kbps (Original)

Субтитры: Отсутствуют

MediaInfo
General
Unique ID : 236136454514590023544225347346210915678 (0xB1A63A143996BBA5B0CE2632BCDA855E)
Complete name : E:DownloadsWorldsNature(3D-halfOU)2013(Ash61).mkv
Format : Matroska
Format version : Version 2
File size : 5.80 GiB
Duration : 53mn 10s
Overall bit rate : 15.6 Mbps
Movie name : Мировая природа: Красивейшие места Европы / World's Nature: Europe's Most Beautiful Places (3D) 2013
Encoded date : UTC 2013-09-01 10:17:03
Writing application : mkvmerge v5.8.0 ('No Sleep / Pillow') built on Sep 2 2012 15:37:04
Writing library : libebml v1.2.3 + libmatroska v1.3.0

Video
ID : 1
Format : AVC
Format/Info : Advanced Video Codec
Format profile : High@L4.1
Format settings, CABAC : Yes
Format settings, ReFrames : 4 frames
Codec ID : V_MPEG4/ISO/AVC
Duration : 53mn 10s
Bit rate : 14.0 Mbps
Width : 1 920 pixels
Height : 1 080 pixels
Display aspect ratio : 16:9
Frame rate mode : Constant
Frame rate : 23.976 fps
Color space : YUV
Chroma subsampling : 4:2:0
Bit depth : 8 bits
Scan type : Progressive
Bits/(Pixel*Frame) : 0.282
Stream size : 5.21 GiB (90%)
Title : BDRip by Ash61
Writing library : x264 core 129 r2245 bc13772
Encoding settings : cabac=1 / ref=4 / deblock=1:-1:-1 / analyse=0x3:0x113 / me=umh / subme=9 / psy=1 / psy_rd=1.00:0.15 / mixed_ref=1 / me_range=32 / chroma_me=1 / trellis=2 / 8x8dct=1 / cqm=0 / deadzone=21,11 / fast_pskip=1 / chroma_qp_offset=-3 / threads=12 / lookahead_threads=2 / sliced_threads=0 / nr=0 / decimate=1 / interlaced=0 / bluray_compat=0 / constrained_intra=0 / bframes=8 / b_pyramid=2 / b_adapt=2 / b_bias=0 / direct=3 / weightb=1 / open_gop=0 / weightp=2 / keyint=250 / keyint_min=23 / scenecut=40 / intra_refresh=0 / rc_lookahead=60 / rc=crf / mbtree=1 / crf=18.0 / qcomp=0.70 / qpmin=10 / qpmax=69 / qpstep=4 / vbv_maxrate=40000 / vbv_bufsize=30000 / crf_max=0.0 / nal_hrd=none / frame-packing=4 / ip_ratio=1.40 / aq=1:0.70
Language : German
Default : Yes
Forced : No

Audio #1
ID : 2
Format : AC-3
Format/Info : Audio Coding 3
Mode extension : CM (complete main)
Format settings, Endianness : Big
Codec ID : A_AC3
Duration : 53mn 10s
Bit rate mode : Constant
Bit rate : 640 Kbps
Channel(s) : 6 channels
Channel positions : Front: L C R, Side: L R, LFE
Sampling rate : 48.0 KHz
Bit depth : 16 bits
Compression mode : Lossy
Stream size : 243 MiB (4%)
Title : Дубляж - BD 3D Rus
Language : Russian
Default : Yes
Forced : No

Audio #2
ID : 3
Format : AC-3
Format/Info : Audio Coding 3
Mode extension : CM (complete main)
Format settings, Endianness : Big
Codec ID : A_AC3
Duration : 53mn 10s
Bit rate mode : Constant
Bit rate : 640 Kbps
Channel(s) : 6 channels
Channel positions : Front: L C R, Side: L R, LFE
Sampling rate : 48.0 KHz
Bit depth : 16 bits
Compression mode : Lossy
Stream size : 243 MiB (4%)
Language : English
Default : No
Forced : No

Menu
00:00:00.000 : :1
00:14:39.796 : :2
00:29:40.028 : :3
00:41:54.011 : :4

    


Рейтинг: 4.3/5 | Оценок: 3
ПОДЕЛИТЬСЯ
Реклама
Реклама
Рекомендуем к прочтению
Информация:
Уважаемый посетитель, Вы зашли на сайт как незарегистрированный пользователь.
Мы рекомендуем Вам зарегистрироваться либо войти на сайт под своим именем.
Всего комментариев: 0
Информация
Посетители, находящиеся в группе Гости, не могут оставлять комментарии к данной публикации.