×
Реклама
Присоединяйся
ТОП Пользователей
Реклама видна только незарегистрированным пользователям. Зарегистрироваться.
Храбрый плавник / Back to the Sea (2012) BDRip 1080p | 3D-Video | halfOU
5-12-2013, 04:23
Bender 0 818
Храбрый плавник / Back to the Sea (2012) BDRip 1080p | 3D-Video | halfOU
Год выпуска: 2012
Страна: Китай, Канада (IndustryWorks Pictures, Glory & Dream Digital Studio)
Жанр: Мультфильм, Комедия
Продолжительность: 01:37:37

Перевод: Профессиональный (дублированный)

Режиссер: Том Лу / Thom Lu

Роли озвучивали (на английском): Юрий Ловенталь (Kevin), Кэт Сауси (Shaobao), Том Кенни (Ben), Марк Хэмилл (Bunker), Мэттью Кинг (Dabao), Тим Карри (Eric), Кристиан Слэйтер (Jack), Тара Стронг (Sammy), Джеймс Си (Cook Liu), Энни Мумоло (Danny)

Описание: В прибрежных водах Нью-Йорка живет Кевин — маленькая летучая рыбка. Каждый день Кевин играет со своими друзьями и мечтает попасть на остров Барбадос, в королевство летучих рыб, но его родители считают эти мечты глупыми.
Однажды, чтобы похвастаться, он отправляется к подводной Скале Славы, достать фамильную реликвию семьи — огромную жемчужину, и попадает в рыболовные сети. Кевин вместе с драгоценностью отправляется в аквариум рыбного ресторанчика, где его ждет страшная судьба — стать изысканным деликатесом. Другие обитатели аквариума верят в то, что исчезающие рыбы становятся людьми, поэтому ждут с нетерпением, когда за ними придут. Для того, чтобы спасти своих новых друзей от смерти и вернуться домой с фамильной жемчужиной, Кевину предстоит показать всю свою храбрость.



Премьера: 27 января 2012 (24 января 2013)
Релиз на Blu-Ray (DVD): 5 февраля 2013

 



Качество: BDRip (by Ash61)
Контейнер: MKV
Формат 3D: Half OverUnder / Вертикальная анаморфная стереопара
Порядок ракурсов: левый ракурс первый
Видео кодек: x264
Аудио кодек: AC3



Видео: AVC / 23,976 fps / 1920х1080p / 3314 Kbps
Аудио: Русский / AC3 / 48 KHz / 5.1 ch / 640 Kbps (Дубляж - BD 3D Rus)
Субтитры: Отсутствуют

Лог кодирования и MediaInfo

General
Unique ID : 235090612977313262564073882976385321978 (0xB0DCCE1C3228BDE1850098ABD3754BFA)
Complete name : E:DownloadsBackToTheSea(3D-halfOU)2012(Ash61).mkv
Format : Matroska
Format version : Version 2
File size : 2.75 GiB
Duration : 1h 37mn
Overall bit rate : 4 034 Kbps
Movie name : Храбрый плавник / Back to the Sea (3D) 2012
Encoded date : UTC 2013-08-23 11:31:38
Writing application : mkvmerge v5.8.0 ('No Sleep / Pillow') built on Sep 2 2012 15:37:04
Writing library : libebml v1.2.3 + libmatroska v1.3.0

Video
ID : 1
Format : AVC
Format/Info : Advanced Video Codec
Format profile : High@L4.1
Format settings, CABAC : Yes
Format settings, ReFrames : 4 frames
Codec ID : V_MPEG4/ISO/AVC
Duration : 1h 37mn
Bit rate : 3 314 Kbps
Width : 1 920 pixels
Height : 1 080 pixels
Display aspect ratio : 16:9
Frame rate mode : Constant
Frame rate : 23.976 fps
Color space : YUV
Chroma subsampling : 4:2:0
Bit depth : 8 bits
Scan type : Progressive
Bits/(Pixel*Frame) : 0.067
Stream size : 2.26 GiB (82%)
Title : BDRip by Ash61
Writing library : x264 core 129 r2245 bc13772
Encoding settings : cabac=1 / ref=4 / deblock=1:-3:-3 / analyse=0x3:0x113 / me=umh / subme=9 / psy=1 / psy_rd=1.00:0.15 / mixed_ref=1 / me_range=32 / chroma_me=1 / trellis=2 / 8x8dct=1 / cqm=0 / deadzone=21,11 / fast_pskip=1 / chroma_qp_offset=-3 / threads=12 / lookahead_threads=2 / sliced_threads=0 / nr=0 / decimate=1 / interlaced=0 / bluray_compat=0 / constrained_intra=0 / bframes=8 / b_pyramid=2 / b_adapt=2 / b_bias=0 / direct=3 / weightb=1 / open_gop=0 / weightp=2 / keyint=250 / keyint_min=23 / scenecut=40 / intra_refresh=0 / rc_lookahead=60 / rc=crf / mbtree=1 / crf=17.0 / qcomp=0.70 / qpmin=0 / qpmax=69 / qpstep=4 / vbv_maxrate=40000 / vbv_bufsize=30000 / crf_max=0.0 / nal_hrd=none / frame-packing=4 / ip_ratio=1.40 / aq=1:0.70
Language : English
Default : Yes
Forced : No

Audio
ID : 2
Format : AC-3
Format/Info : Audio Coding 3
Mode extension : CM (complete main)
Format settings, Endianness : Big
Codec ID : A_AC3
Duration : 1h 37mn
Bit rate mode : Constant
Bit rate : 640 Kbps
Channel(s) : 6 channels
Channel positions : Front: L C R, Side: L R, LFE
Sampling rate : 48.0 KHz
Bit depth : 16 bits
Compression mode : Lossy
Stream size : 447 MiB (16%)
Title : Дубляж - BD 3D Rus
Language : Russian
Default : Yes
Forced : No

Menu
00:00:00.000 : :1
00:08:07.696 : :2
00:15:50.575 : :3
00:25:56.555 : :4
00:33:57.410 : :5
00:43:59.470 : :6
00:53:36.088 : :7
01:01:41.114 : :8
01:12:57.832 : :9
01:23:23.916 : :10
01:32:22.036 : :11

    


Рейтинг: 4/5 | Оценок: 2
ПОДЕЛИТЬСЯ
Реклама
Реклама
Рекомендуем к прочтению
Информация:
Уважаемый посетитель, Вы зашли на сайт как незарегистрированный пользователь.
Мы рекомендуем Вам зарегистрироваться либо войти на сайт под своим именем.
Всего комментариев: 0
Информация
Посетители, находящиеся в группе Гости, не могут оставлять комментарии к данной публикации.