×
Реклама
Присоединяйся
ТОП Пользователей
Реклама видна только незарегистрированным пользователям. Зарегистрироваться.
Призрачный патруль / R.I.P.D. (2013) BDRip 1080p | 3D-Video | halfOU | Лицензия
4-12-2013, 20:11
Bender 0 2 323
Призрачный патруль / R.I.P.D. (2013) BDRip 1080p | 3D-Video | halfOU | Лицензия
Год выпуска: 2013
Страна: США (Universal Pictures, Original Film, Dark Horse Entertainment)
Жанр: Фэнтези, Боевик, Комедия
Продолжительность: 01:35:54

Перевод: Дубляжи Русский (Лицензия) и Украинский (TS)

Режиссер: Роберт Швентке / Robert Schwentke



Роли исполняли (дублировали):



Roy - Джефф Бриджес (Владимир Антоник)
Nick - Райан Рейнольдс (Пётр Иващенко)
Hayes - Кевин Бейкон (Владимир Зайцев)
Proctor - Мэри-Луиз Паркер
Julia - Стефани Зостак
Nick's Avatar - Джеймс Хонг (Диомид Виноградов)
Roy's Avatar - Мариса Миллер
Stanley Nawlicki - Роберт Неппер
Elliot - Майк О’Мэлли (Сергей Чихачев)
Pulaski - Девин Рэтрей
Officer Murphy - Ларри Джо Кэмпбелл



Описание: Детективы из загробного департамента расследуют преступления по ту сторону могилы и гоняются за не в меру ретивой нечистью. Молодой коп, после гибели от руки неизвестного злоумышленника угодивший в мир иной, в обмен на помощь при расследовании собственного убийства обязуется следующие сто лет посвятить службе в R.I.P.D. и, получив в напарники брутального стрелка эпохи вестернов, выходит на борьбу с неупокоившимся злом.

Доп. информация: субтитры с BD CEE (а не с нотабеноида, как у некоторых безымянных воришек чужих рипов ), причём они синхронны... :)

Знаете ли вы, что...:
Фильм снят по мотивам комикса Питера М. Ленкова «R.I.P.D.» (2001).
Номер машины Роя и Ника 314159, что является приближенным значением числа Пи.
Одна из сцен была снята в здании Hynes Convention Center, который находится на расстоянии полумили от площади Копли, где Джеффа Бриджеса чуть не убили в реальной жизни во время съемок сцены взрыва грузовика с бомбой из фильма «Подрывники» (1994).
Зак Галифианакис рассматривался на роль Роя Пауэлла, но покинул проект из-за несогласованности расписаний съемок.
Джоди Фостер рассматривалась на роль Проктер.
Это четвертый раз, когда Райан Рейнольдс играет в фильме, снятом по комиксам. Ранее он играл Ганнибала Кинга в фильме «Блэйд 3: Троица» (2004), Дэдпула в «Люди Икс: Начало. Росомаха» (2009) и Хэла Джордана в фильме «Зеленый Фонарь» (2011).
В США и некоторых других странах этот фильм вышел в один день с фильмом «РЭД 2» (2013), сиквелом фильма режиссера «Призрачного патруля» Роберта Швентке — «РЭД» (2010), в котором так же снималась Мэри-Луиз Паркер. Кроме того, он был выпущен через два дня после анимационного фильма «Турбо» (2013), в котором одного из персонажей озвучивал Райан Рейнольдс.
У фильма не было предварительного показа для критиков.
Ещё один факт. Осторожно, спойлер!
Одна из машин бостонской полиции на рейде, где убивают Ника, имеет отметки того же вымышленного района A-8, что и в фильмах «Папа-досвидос» (2012) и «Город воров» (2010).
Техн. детали съёмки
Съёмки: 6 сентября 2011 — 25 января 2012
Формат изображения: 2.35 : 1
Камера: Arri Alexa, Zeiss Master Prime and Hawk Lenses
Формат копии: 35 mm (anamorphic)
D-Cinema
Формат съёмок: Codex

Премьера: 17 июля 2013 (18 июля 2013)
Релиз на Blu-Ray (DVD): 14 ноября 2013
Бюджет: $130 000 000
Кассовые сборы: $76 249 509


Качество: BDRip (by Ash61)
Контейнер: MKV
Формат 3D: Half OverUnder / Вертикальная анаморфная стереопара
Порядок ракурсов: левый ракурс первый
Видео кодек: x264
Аудио кодек: AC3



Видео: AVC / 23,976 fps / 1920х1080p / ~7.7 Mbps

Аудио:
#1 - Русский / AC3 / 48 KHz / 5.1 ch / 640 Kbps (Дубляж - BD CEE)
#2 - Украинский / AC3 / 48 KHz / 2 ch / 192 Kbps (Дубляж - TS) edited
#3 - Английский / AC3 / 48 KHz / 5.1 ch / 640 Kbps (Original)

Субтитры (SRT):
#1 - Русские Форсированные (включены по умолчанию)
#2 - Русские Полные
#3 - Украинские Форсированные (made by Ash61)
#4 - Украинские Полные
#5 - English Full
#6 - English SDH
#7 - English SDH-Color

Вшитые (softsub):
#1 - Русские Форсированные (включены по умолчанию)
#2 - Украинские Форсированные

MediaInfo
General
Unique ID : 198868489658465592170559400868120466027 (0x959CAD8C59C104989B5A91EA2AC5926B)
Complete name : E:RIPD(2013)3D-halfOU(Ash61)RIPD(2013)3D-halfOU(Ash61).mkv
Format : Matroska
Format version : Version 2
File size : 6.25 GiB
Duration : 1h 35mn
Overall bit rate : 9 325 Kbps
Movie name : Призрачный патруль / R.I.P.D. (2013) 3D
Encoded date : UTC 2013-11-07 16:08:51
Writing application : mkvmerge v5.8.0 ('No Sleep / Pillow') built on Sep 2 2012 15:37:04
Writing library : libebml v1.2.3 + libmatroska v1.3.0

Video
ID : 1
Format : AVC
Format/Info : Advanced Video Codec
Format profile : High@L4.1
Format settings, CABAC : Yes
Format settings, ReFrames : 4 frames
Codec ID : V_MPEG4/ISO/AVC
Duration : 1h 35mn
Bit rate : 7 667 Kbps
Width : 1 920 pixels
Height : 1 080 pixels
Display aspect ratio : 16:9
Frame rate mode : Constant
Frame rate : 23.976 fps
Color space : YUV
Chroma subsampling : 4:2:0
Bit depth : 8 bits
Scan type : Progressive
Bits/(Pixel*Frame) : 0.154
Stream size : 5.14 GiB (82%)
Title : BDRip by Ash61
Writing library : x264 core 129 r2245 bc13772
Encoding settings : cabac=1 / ref=4 / deblock=1:-3:-3 / analyse=0x3:0x113 / me=umh / subme=10 / psy=1 / psy_rd=1.00:0.15 / mixed_ref=1 / me_range=32 / chroma_me=1 / trellis=2 / 8x8dct=1 / cqm=0 / deadzone=21,11 / fast_pskip=1 / chroma_qp_offset=-3 / threads=12 / lookahead_threads=2 / sliced_threads=0 / nr=0 / decimate=1 / interlaced=0 / bluray_compat=0 / constrained_intra=0 / bframes=8 / b_pyramid=2 / b_adapt=2 / b_bias=0 / direct=3 / weightb=1 / open_gop=0 / weightp=2 / keyint=250 / keyint_min=23 / scenecut=40 / intra_refresh=0 / rc_lookahead=60 / rc=crf / mbtree=1 / crf=17.0 / qcomp=0.70 / qpmin=0 / qpmax=69 / qpstep=4 / vbv_maxrate=40000 / vbv_bufsize=30000 / crf_max=0.0 / nal_hrd=none / frame-packing=4 / ip_ratio=1.40 / aq=1:0.70
Language : English
Default : Yes
Forced : No

Audio #1
ID : 2
Format : AC-3
Format/Info : Audio Coding 3
Mode extension : CM (complete main)
Format settings, Endianness : Big
Codec ID : A_AC3
Duration : 1h 35mn
Bit rate mode : Constant
Bit rate : 640 Kbps
Channel(s) : 6 channels
Channel positions : Front: L C R, Side: L R, LFE
Sampling rate : 48.0 KHz
Bit depth : 16 bits
Compression mode : Lossy
Stream size : 439 MiB (7%)
Title : Дубляж - BD CEE
Language : Russian
Default : Yes
Forced : No

Audio #2
ID : 3
Format : AC-3
Format/Info : Audio Coding 3
Mode extension : CM (complete main)
Format settings, Endianness : Big
Codec ID : A_AC3
Duration : 1h 35mn
Bit rate mode : Constant
Bit rate : 192 Kbps
Channel(s) : 2 channels
Channel positions : Front: L R
Sampling rate : 48.0 KHz
Bit depth : 16 bits
Compression mode : Lossy
Stream size : 132 MiB (2%)
Title : Дубляж - с TS
Language : Ukrainian
Default : No
Forced : No

Audio #3
ID : 4
Format : AC-3
Format/Info : Audio Coding 3
Mode extension : CM (complete main)
Format settings, Endianness : Big
Codec ID : A_AC3
Duration : 1h 35mn
Bit rate mode : Constant
Bit rate : 640 Kbps
Channel(s) : 6 channels
Channel positions : Front: L C R, Side: L R, LFE
Sampling rate : 48.0 KHz
Bit depth : 16 bits
Compression mode : Lossy
Stream size : 439 MiB (7%)
Title : Original
Language : English
Default : No
Forced : No

Text #1
ID : 5
Format : UTF-8
Codec ID : S_TEXT/UTF8
Codec ID/Info : UTF-8 Plain Text
Title : Форсированные
Language : Russian
Default : Yes
Forced : No

Text #2
ID : 6
Format : UTF-8
Codec ID : S_TEXT/UTF8
Codec ID/Info : UTF-8 Plain Text
Title : Форсированные
Language : Ukrainian
Default : No
Forced : No

Menu
00:00:00.000 : :1
00:03:56.111 : :2
00:09:12.135 : :3
00:14:29.577 : :4
00:17:57.410 : :5
00:22:29.598 : :6
00:27:08.502 : :7
00:33:32.510 : :8
00:38:45.156 : :9
00:43:26.646 : :10
00:46:30.746 : :11
00:52:03.037 : :12
00:55:51.098 : :13
01:02:14.981 : :14
01:07:00.099 : :15
01:10:34.689 : :16
01:13:15.308 : :17
01:17:51.125 : :18
01:22:59.933 : :19
01:27:26.908 : :20

    


Рейтинг: 4.3/5 | Оценок: 4
ПОДЕЛИТЬСЯ
Реклама
Реклама
Рекомендуем к прочтению
Информация:
Уважаемый посетитель, Вы зашли на сайт как незарегистрированный пользователь.
Мы рекомендуем Вам зарегистрироваться либо войти на сайт под своим именем.
Всего комментариев: 0
Информация
Посетители, находящиеся в группе Гости, не могут оставлять комментарии к данной публикации.