×
Реклама
Присоединяйся
ТОП Пользователей
Реклама видна только незарегистрированным пользователям. Зарегистрироваться.
Великий Гэтсби / The Great Gatsby (2013) BDRip 1080p | 3D-Video | Лицензия
4-12-2013, 20:08
Bender 0 4 027
Великий Гэтсби / The Great Gatsby (2013) BDRip 1080p | 3D-Video | Лицензия
  • Страна: Австралия, США
  • Студия: Village Roadshow Pictures, Bazmark Films, Red Wagon Productions
  • Жанр: драма, мелодрама
  • Год выпуска: 2013
  • Продолжительность: 02:22:06

  • Перевод: русский и украинский профессиональные (полное дублирование) [Лицензия, BD EUR]
  • Оригинальная аудиодорожка: английская
  • Русские субтитры: есть
  • Режиссер: Баз Лурман / Baz Luhrmann
  • В ролях: Леонардо ДиКаприо, Тоби Магуайр, Кэри Маллиган, Айла Фишер, Джоэл Эдгертон, Джейсон Кларк, Эделейд Клеменс, Каллэн МакОлиффи, Джемма Уорд, Амитабх Баччан, Элизабет Дебики, Джек Томпсон, Ричард Картер, Яцек Коман, Винс Колосимо, Бэрри Отто, Макс Каллен, Эдвина Ричард, Феликс Уильямсон, Джоэль Амос Бернс, Гас Мюррэй, Стефен Джеймс Кинг
  • Роли дублировали: Сергей Бурунов, Михаил Тихонов, Наталья Фищук, Алексей Рязанцев, Татьяна Шитова



    Весной 1922 года, в эпоху разлагающейся морали, блистательного джаза и «королей контрабандного алкоголя», Ник Каррауэй приезжает из Среднего Запада в Нью-Йорк. Преследуя собственную американскую мечту, он селится по соседству с таинственным, известным своими вечеринками миллионером Джеем Гэтсби, а на противоположном берегу бухты проживают его кузина Дэйзи и её муж, повеса и аристократ, Том Бьюкенен. Так Ник оказывается вовлечённым в захватывающий мир богатых — их иллюзий, любви и обманов. Он становится свидетелем происходящего в этом мире и пишет историю невозможной любви, вечных мечтаний и человеческой трагедии, которые являются отражением современных времен и нравов.


  • Тип релиза: BDRip 1080p (исходник: The Great Gatsby 2013 1080p 3D Blu-ray AVC DTS-HD MA 5.1-HDWinG)
  • Контейнер: MKV
  • Формат 3D: Half OverUnder / Вертикальная анаморфная стереопара
  • Порядок ракурсов: левый ракурс первый
  • Поддержка автоматического запуска 3D на вашем TV (frame paking): да
  • Видео кодек: x264
  • Аудио кодек: AC3
  • Видео: AVC / High@L4.1 / 2 pass / 23,976 fps / 1920x1080p (16:9) / 9,8 Mbps / 0.197
  • Аудио 1:  AC3 / 5.1 ch / 448 kbps / Русский дубляж, BD EUR
  • Аудио 1:  AC3 / 5.1 ch / 448 kbps / Украинский дубляж, BD EUR
  • Аудио 2:  AC3 / 5.1 ch / 640 kbps / Английский original, BD US
  • Субтитры: [softsub SRT]
     Русские Forced, BD EUR (включены по умолчанию)
     Русские Full, BD EUR
     Русские Full, Voronine
     Украинские Forced, iTunes
     Украинские Full, BD EUR
     Английские Full, BD US
     Английские SDH, mod. BD US
     Английские SDH-COLOR, mod. BD US
  • Дополнительно: Сохранены оригинальные чаптеры (главы) как на Blu-ray





  • MediaInfo:
  • Общее
  • Уникальный идентификатор : 170789126407353264261657403009040598787 (0x807CCA0DC0F6F2A9BD8BCE0253174703)
  • Полное имя : F:Скачка торрентThe.Great.Gatsby.2013.BDRip1080p.halfOU(Killbrain).mkv
  • Формат : Matroska
  • Версия формата : Version 4 / Version 2
  • Размер файла : 11,3 Гбайт
  • Продолжительность : 2 ч. 22 м.
  • Общий поток : 11,3 Мбит/сек
  • Название фильма : The Great Gatsby 3D (2013) by Killbrain
  • Дата кодирования : UTC 2013-09-07 06:00:23
  • Программа кодирования : mkvmerge v6.3.0 ('You can't stop me!') built on Jun 28 2013 20:09:41
  • Библиотека кодирования : libebml v1.3.0 + libmatroska v1.4.0

  • Видео
  • Идентификатор : 1
  • Формат : AVC
  • Формат/Информация : Advanced Video Codec
  • Профиль формата : High@L4.1
  • Параметр CABAC формата : Да
  • Параметр ReFrames формата : 4 кадра
  • Идентификатор кодека : V_MPEG4/ISO/AVC
  • Продолжительность : 2 ч. 22 м.
  • Битрейт : 9800 Кбит/сек
  • Ширина : 1920 пикселей
  • Высота : 1080 пикселей
  • Соотношение сторон : 16:9
  • Режим частоты кадров : Постоянный
  • Частота кадров : 23,976 кадра/сек
  • Цветовое пространство : YUV
  • Субдискретизация насыщенности : 4:2:0
  • Битовая глубина : 8 бит
  • Тип развёртки : Прогрессивная
  • Бит/(Пиксели*Кадры) : 0.197
  • Размер потока : 9,51 Гбайт (84%)
  • Заголовок : The Great Gatsby 3D (2013)
  • Библиотека кодирования : x264 core 138 r2358 9e941d1
  • Настройки программы : cabac=1 / ref=4 / deblock=1:-3:-3 / analyse=0x3:0x113 / me=umh / subme=10 / psy=1 / psy_rd=1.00:0.15 / mixed_ref=1 / me_range=32 / chroma_me=1 / trellis=2 / 8x8dct=1 / cqm=0 / deadzone=21,11 / fast_pskip=0 / chroma_qp_offset=-3 / threads=3 / lookahead_threads=1 / sliced_threads=0 / nr=0 / decimate=0 / interlaced=0 / bluray_compat=0 / constrained_intra=0 / bframes=8 / b_pyramid=2 / b_adapt=2 / b_bias=0 / direct=3 / weightb=1 / open_gop=0 / weightp=2 / keyint=240 / keyint_min=24 / scenecut=40 / intra_refresh=0 / rc_lookahead=60 / rc=2pass / mbtree=0 / bitrate=9800 / ratetol=1.0 / qcomp=0.65 / qpmin=0 / qpmax=69 / qpstep=4 / cplxblur=20.0 / qblur=0.5 / vbv_maxrate=40000 / vbv_bufsize=30000 / nal_hrd=none / frame-packing=4 / ip_ratio=1.40 / pb_ratio=1.30 / aq=1:0.80
  • Язык : English
  • Default : Да
  • Forced : Нет

  • Аудио #1
  • Идентификатор : 2
  • Формат : AC-3
  • Формат/Информация : Audio Coding 3
  • Расширение режима : CM (complete main)
  • Параметр Endianness формата : Big
  • Идентификатор кодека : A_AC3
  • Продолжительность : 2 ч. 22 м.
  • Вид битрейта : Постоянный
  • Битрейт : 448 Кбит/сек
  • Каналы : 6 каналов
  • Расположение каналов : Front: L C R, Side: L R, LFE
  • Частота : 48,0 КГц
  • Битовая глубина : 16 бит
  • Метод сжатия : С потерями
  • Размер потока : 455 Мбайт (4%)
  • Заголовок : AC3 / 5.1 ch / 448 kbps / Русский дубляж, BD EUR
  • Язык : Russian
  • Default : Да
  • Forced : Нет

  • Аудио #2
  • Идентификатор : 3
  • Формат : AC-3
  • Формат/Информация : Audio Coding 3
  • Расширение режима : CM (complete main)
  • Параметр Endianness формата : Big
  • Идентификатор кодека : A_AC3
  • Продолжительность : 2 ч. 22 м.
  • Вид битрейта : Постоянный
  • Битрейт : 448 Кбит/сек
  • Каналы : 6 каналов
  • Расположение каналов : Front: L C R, Side: L R, LFE
  • Частота : 48,0 КГц
  • Битовая глубина : 16 бит
  • Метод сжатия : С потерями
  • Размер потока : 455 Мбайт (4%)
  • Заголовок : AC3 / 5.1 ch / 448 kbps / Украинский дубляж, BD EUR
  • Язык : Ukrainian
  • Default : Нет
  • Forced : Нет

  • Аудио #3
  • Идентификатор : 4
  • Формат : AC-3
  • Формат/Информация : Audio Coding 3
  • Расширение режима : CM (complete main)
  • Параметр Endianness формата : Big
  • Идентификатор кодека : A_AC3
  • Продолжительность : 2 ч. 22 м.
  • Вид битрейта : Постоянный
  • Битрейт : 640 Кбит/сек
  • Каналы : 6 каналов
  • Расположение каналов : Front: L C R, Side: L R, LFE
  • Частота : 48,0 КГц
  • Битовая глубина : 16 бит
  • Метод сжатия : С потерями
  • Размер потока : 651 Мбайт (6%)
  • Заголовок : AC3 / 5.1 ch / 640 kbps / Английский original, BD US
  • Язык : English
  • Default : Нет
  • Forced : Нет

  • Текст #1
  • Идентификатор : 5
  • Формат : UTF-8
  • Идентификатор кодека : S_TEXT/UTF8
  • Идентификатор кодека/Информация : UTF-8 Plain Text
  • Заголовок : Forced, BD EUR
  • Язык : Russian
  • Default : Да
  • Forced : Нет

  • Текст #2
  • Идентификатор : 6
  • Формат : UTF-8
  • Идентификатор кодека : S_TEXT/UTF8
  • Идентификатор кодека/Информация : UTF-8 Plain Text
  • Заголовок : Full, BD EUR
  • Язык : Russian
  • Default : Нет
  • Forced : Нет

  • Текст #3
  • Идентификатор : 7
  • Формат : UTF-8
  • Идентификатор кодека : S_TEXT/UTF8
  • Идентификатор кодека/Информация : UTF-8 Plain Text
  • Заголовок : Full, Voronine
  • Язык : Russian
  • Default : Нет
  • Forced : Нет

  • Текст #4
  • Идентификатор : 8
  • Формат : UTF-8
  • Идентификатор кодека : S_TEXT/UTF8
  • Идентификатор кодека/Информация : UTF-8 Plain Text
  • Заголовок : Forced, iTunes
  • Язык : Ukrainian
  • Default : Нет
  • Forced : Нет

  • Текст #5
  • Идентификатор : 9
  • Формат : UTF-8
  • Идентификатор кодека : S_TEXT/UTF8
  • Идентификатор кодека/Информация : UTF-8 Plain Text
  • Заголовок : Full, BD EUR
  • Язык : Ukrainian
  • Default : Нет
  • Forced : Нет

  • Текст #6
  • Идентификатор : 10
  • Формат : UTF-8
  • Идентификатор кодека : S_TEXT/UTF8
  • Идентификатор кодека/Информация : UTF-8 Plain Text
  • Заголовок : Full, BD US
  • Язык : English
  • Default : Нет
  • Forced : Нет

  • Текст #7
  • Идентификатор : 11
  • Формат : UTF-8
  • Идентификатор кодека : S_TEXT/UTF8
  • Идентификатор кодека/Информация : UTF-8 Plain Text
  • Заголовок : SDH, mod. BD US
  • Язык : English
  • Default : Нет
  • Forced : Нет

  • Текст #8
  • Идентификатор : 12
  • Формат : UTF-8
  • Идентификатор кодека : S_TEXT/UTF8
  • Идентификатор кодека/Информация : UTF-8 Plain Text
  • Заголовок : SDH-COLOR, mod. BD US
  • Язык : English
  • Default : Нет
  • Forced : Нет

  • Меню
  • 00:00:00.000 : :Chapter 01
  • 00:11:04.080 : :Chapter 02
  • 00:22:55.832 : :Chapter 03
  • 00:34:26.898 : :Chapter 04
  • 00:44:48.727 : :Chapter 05
  • 00:55:36.332 : :Chapter 06
  • 01:06:20.643 : :Chapter 07
  • 01:18:27.786 : :Chapter 08
  • 01:31:13.926 : :Chapter 09
  • 01:44:11.954 : :Chapter 10
  • 01:56:35.154 : :Chapter 11
  • 02:05:46.121 : :Chapter 12
  • 02:09:40.981 : :Chapter 13

  •     


  • Рейтинг: 4.3/5 | Оценок: 6
    ПОДЕЛИТЬСЯ
    Реклама
    Реклама
    Рекомендуем к прочтению
    Информация:
    Уважаемый посетитель, Вы зашли на сайт как незарегистрированный пользователь.
    Мы рекомендуем Вам зарегистрироваться либо войти на сайт под своим именем.
    Всего комментариев: 0
    Информация
    Посетители, находящиеся в группе Гости, не могут оставлять комментарии к данной публикации.