×
Реклама
Присоединяйся
ТОП Пользователей
Реклама видна только незарегистрированным пользователям. Зарегистрироваться.
Гадкий я 2 / Despicable Me 2 (2013) BDRip 1080p | 3D-Video | halfOU
4-12-2013, 20:03
Bender 0 2 694
Гадкий я 2 / Despicable Me 2 (2013) BDRip 1080p | 3D-Video | halfOU
Год выпуска: 2013
Страна: США
Жанр: Мультфильм, Фантастика, Комедия, Приключения, Семейный
Продолжительность: 01:38:04

Перевод: Профессиональный (дублированный)

Режиссеры: Пьер Соффин, Крис Рено / Pierre Coffin, Chris Renaud


Роли озвучивали (дублировали):

Gru - Стив Карелл (Сергей Бурунов)
Lucy - Кристен Уиг
Eduardo, El Macho - Бенджамин Брэтт (Владимир Еремин)
Margo - Миранда Косгров (Лиза Мартиросова)
Dr. Nefario - Расселл Брэнд
Floyd - Кен Жонг (Диомид Виноградов)
Silas - Стив Куган
Agnes - Элси Фишер
Edith - Дэна Гайер
Antonio - Мойзес Ариас (Прохор Чеховской)
Arctic Lab Guard - Николай Стоилов (Иван Жарков)


Описание: В то время как Грю, бывший суперзлодей, приспосабливается к семейной жизни и пытается честным трудом зарабатывать в сфере бизнеса, тайные лаборатории Арктики оказываются украденными. Анти-Злодейская лига решает, что она нуждается в помощи Грю и его новобранцев в расследовании.

Знаете ли вы, что...:
Это первый сиквел студии Illumination Entertainment.
В начале фильма показывают людей в желтых рубашках, которые разговаривают на иностранном языке. Это намек на оригинальный дизайн миньонов для фильма «Гадкий я» (2010) — их итоговый «укороченный» внешний вид появился из-за низкого бюджета первого фильма.
Когда Грю впервые посещает миньонов в подземной мастерской, можно заметить нескольких миньонов, кушающих на вершине поперечной балки. Эта сцена сделана в честь знаменитой фотографии «Обед на небоскрёбе» 1932-го года.
Все голоса миньонов в оригинальной озвучке принадлежат режиссерам картины — Пьеру Соффину и Крису Рено.
Вместо Леонида Ярмольника, который озвучивал Грю в первой части мультфильма, голос в русском дубляже достался Сергею Бурунову.
В сцене, где Люси Уайлд дает Грю номер телефона, чтобы связаться с ней, отчетливо видно цифры: 626-584-5723. Если позвонить по этому номеру, то можно услышать голосовое сообщение от Кристен Уиг в образе агента Люси Уайлд.
Когда Грю осматривает торговый центр, он видит мужчину, который надувает шарик, чтобы затем лопнуть его и заставить ребенка плакать. Плачущий ребенок — это тот же самый ребенок, которого Грю заставил плакать, лопнув шарик, в начале первого фильма.
Первоначально Аль Пачино досталась роль Эдуардо, и он даже записал его фразы, но затем покинул проект из-за творческих разногласий. Вместо него роль получил Бенджамин Брэтт.
Хавьер Бардем должен был озвучить злодея, но покинул проект.
В начале фильма, когда появляется корабль-магнит, один из исследователей падает и кричит «криком Вильгельма».
На рабочем месте доктора Нефарио приколото его фото на пляже. Точно такое же фото появлялось во время его звонка на мобильном телефоне Грю в первой части.
В доме Грю лепестки цветка на картине складываются в символ биологически опасного вещества.
Есть небольшая сцена в фильме, где Эдит играет в пинг-понг с миньоном, но используя нунчаку вместо ракетки. Это намек на известную китайскую рекламу Nokia, в которой человек, пародирующий Брюса Ли, играет в пинг-понг, используя пару нунчак.
Есть, по крайней мере, два миньона по имени Кевин. В первом фильме Кевином зовут одноглазого миньона, а в сиквеле Кевин это более высокий миньон с двумя глазами.
Внимание! Дальнейший список фактов о мультфильме содержит спойлеры. Будьте осторожны.
В моменте битвы Грю с курицей в ресторане Эль Мачо есть отсылка к фильму «Чужой», когда курица вырывается через свитер Грю через грудь.
Финальная песня миньонов в российском прокате содержит слово «труселя», а в украинском — «у трусах».
На свадьбе Грю и Люси миньоны в белых костюмах начинают петь песню «I swear» группы All-4-One. Участники этой группы также были в белых костюмах в клипе на эту песню.

Премьера: 16 июня 2013 (15 августа 2013)
Релиз на Blu-Ray (DVD): 31 октября 2013
Бюджет: $76 000 000
Кассовые сборы: $898 439 000


Качество: BDRip (by Ash61)
Контейнер: MKV
Формат 3D: Half OverUnder / Вертикальная анаморфная стереопара
Порядок ракурсов: левый ракурс первый
Видео кодек: x264
Аудио кодек: AC3


Видео: AVC / 23,976 fps / 1920х1080p / 8588 Kbps

Аудио:
#1 - Русский / AC3 / 48 KHz / 5.1 ch / 640 Kbps (Дубляж - BD EUR)
#2 - Английский / AC3 / 48 KHz / 5.1 ch / 640 Kbps (Original)

Субтитры: (SRT)
Внешние (UTF-8):
#1 - Русские Форсированные (включены по умолчанию)
#2 - Русские Полные
#3 - English Full

Вшитые (softsub):
#1 - Русские Форсированные (включены по умолчанию)

MediaInfo
General
Unique ID : 208450035672641427547663696239442192588 (0x9CD2043D585C01999F30B19B7F42E8CC)
Complete name : E:DespicableMe2(2013)3D-halfOU(Ash61)DespicableMe2(2013)3D-halfOU(Ash61).mkv
Format : Matroska
Format version : Version 2
File size : 6.90 GiB
Duration : 1h 38mn
Overall bit rate : 10.1 Mbps
Movie name : Гадкий я 2 / Despicable Me 2 (2013) 3D
Encoded date : UTC 2013-10-21 13:54:23
Writing application : mkvmerge v5.8.0 ('No Sleep / Pillow') built on Sep 2 2012 15:37:04
Writing library : libebml v1.2.3 + libmatroska v1.3.0

Video
ID : 1
Format : AVC
Format/Info : Advanced Video Codec
Format profile : High@L4.1
Format settings, CABAC : Yes
Format settings, ReFrames : 4 frames
Codec ID : V_MPEG4/ISO/AVC
Duration : 1h 38mn
Bit rate : 8 588 Kbps
Width : 1 920 pixels
Height : 1 080 pixels
Display aspect ratio : 16:9
Frame rate mode : Constant
Frame rate : 23.976 fps
Color space : YUV
Chroma subsampling : 4:2:0
Bit depth : 8 bits
Scan type : Progressive
Bits/(Pixel*Frame) : 0.173
Stream size : 5.88 GiB (85%)
Title : BDRip by Ash61
Writing library : x264 core 129 r2245 bc13772
Encoding settings : cabac=1 / ref=4 / deblock=1:-3:-3 / analyse=0x3:0x113 / me=umh / subme=10 / psy=1 / psy_rd=1.00:0.15 / mixed_ref=1 / me_range=32 / chroma_me=1 / trellis=2 / 8x8dct=1 / cqm=0 / deadzone=21,11 / fast_pskip=1 / chroma_qp_offset=-3 / threads=12 / lookahead_threads=2 / sliced_threads=0 / nr=0 / decimate=1 / interlaced=0 / bluray_compat=0 / constrained_intra=0 / bframes=9 / b_pyramid=2 / b_adapt=2 / b_bias=0 / direct=3 / weightb=1 / open_gop=0 / weightp=2 / keyint=250 / keyint_min=23 / scenecut=40 / intra_refresh=0 / rc_lookahead=60 / rc=crf / mbtree=1 / crf=17.0 / qcomp=0.70 / qpmin=0 / qpmax=69 / qpstep=4 / vbv_maxrate=40000 / vbv_bufsize=30000 / crf_max=0.0 / nal_hrd=none / frame-packing=4 / ip_ratio=1.40 / aq=1:0.70
Language : English
Default : Yes
Forced : No

Audio #1
ID : 2
Format : AC-3
Format/Info : Audio Coding 3
Mode extension : CM (complete main)
Format settings, Endianness : Big
Codec ID : A_AC3
Duration : 1h 38mn
Bit rate mode : Constant
Bit rate : 640 Kbps
Channel(s) : 6 channels
Channel positions : Front: L C R, Side: L R, LFE
Sampling rate : 48.0 KHz
Bit depth : 16 bits
Compression mode : Lossy
Stream size : 449 MiB (6%)
Title : Дубляж - BD EUR
Language : Russian
Default : Yes
Forced : No

Audio #2
ID : 3
Format : AC-3
Format/Info : Audio Coding 3
Mode extension : CM (complete main)
Format settings, Endianness : Big
Codec ID : A_AC3
Duration : 1h 38mn
Bit rate mode : Constant
Bit rate : 640 Kbps
Channel(s) : 6 channels
Channel positions : Front: L C R, Side: L R, LFE
Sampling rate : 48.0 KHz
Bit depth : 16 bits
Compression mode : Lossy
Stream size : 449 MiB (6%)
Title : Original
Language : English
Default : No
Forced : No

Text
ID : 4
Format : UTF-8
Codec ID : S_TEXT/UTF8
Codec ID/Info : UTF-8 Plain Text
Title : Форсированные
Language : Russian
Default : Yes
Forced : No

Menu
00:00:00.000 : :1
00:03:22.994 : :2
00:08:04.734 : :3
00:15:50.867 : :4
00:18:28.232 : :5
00:24:36.892 : :6
00:30:50.724 : :7
00:34:40.704 : :8
00:40:48.279 : :9
00:46:26.200 : :10
00:51:23.122 : :11
00:56:27.426 : :12
01:00:00.472 : :13
01:03:27.053 : :14
01:08:44.078 : :15
01:14:01.979 : :16
01:18:08.058 : :17
01:22:33.907 : :18
01:27:09.099 : :19
01:30:33.720 : :20

    


Рейтинг: 3/5 | Оценок: 1
ПОДЕЛИТЬСЯ
Реклама
Реклама
Рекомендуем к прочтению
Информация:
Уважаемый посетитель, Вы зашли на сайт как незарегистрированный пользователь.
Мы рекомендуем Вам зарегистрироваться либо войти на сайт под своим именем.
Всего комментариев: 0
Информация
Посетители, находящиеся в группе Гости, не могут оставлять комментарии к данной публикации.