×
Реклама
Присоединяйся
ТОП Пользователей
Реклама видна только незарегистрированным пользователям. Зарегистрироваться.
Война миров Z / World War Z (2013) BDRip 1080p | 3D-Video | Лицензия | Theatrical Cut
4-12-2013, 20:01
Bender 1 1 469
Война миров Z / World War Z (2013) BDRip 1080p | 3D-Video | Лицензия | Theatrical Cut
Название: Война миров Z
Оригинальное название: World War Z
Год выпуска: 2013
Жанр: Ужасы, фантастика, боевик, триллер, драма
Выпущено: США, Мальта, Apparatus Productions, GK Films, Hemisphere Media Capital, Latina Pictures, Paramount Pictures, Plan B Entertainment, Skydance Productions
Продолжительность: 01:56:02
Перевод: Дублированный

Режиссер: Марк Форстер

В ролях: Брэд Питт, Мирей Инос, Джеймс Бэдж Дэйл, Мэттью Фокс, Даниэлла Кертеш, Луди Бокен, Фана Мокоэна, Дэвид Морc, Элайес Габел, Питер Капальди

О фильме: 
Сотрудник ООН Гари Лейн наперегонки со временем пытается остановить заражение, способное полностью истребить человечество.

 

Качество: BDRip (1080p)
Видео: MPEG-4 AVC, 10000 Кбит/с, 1920x1080
Аудио: Русский, английский (DTS, 6 ch, 1536 Кбит/с)

MediaInfo
Формат : Matroska
Версия формата : Version 3 / Version 2
Размер файла : 10,6 Гбайт
Продолжительность : 1 ч. 56 м.
Общий поток : 13,0 Мбит/сек
Название фильма : World War Z [Theatrical cut] (2013) - Release for HDCLUB
Дата кодирования : UTC 2013-09-13 16:53:47
Программа кодирования : mkvmerge v6.3.0 ('You can't stop me!') built on Jun 28 2013 20:09:41
Библиотека кодирования : libebml v1.3.0 + libmatroska v1.4.0
Attachment : Yes / Yes

Видео
Идентификатор : 1
Формат : AVC
Формат/Информация : Advanced Video Codec
Профиль формата : High@L4.1
MultiView_Count : 2
MultiView_Layout : Side by Side (left eye first)
Параметр CABAC формата : Да
Параметр ReFrames формата : 4 кадра
Идентификатор кодека : V_MPEG4/ISO/AVC
Продолжительность : 1 ч. 56 м.
Битрейт : 10000 Кбит/сек
Ширина : 1920 пикселей
Высота : 1080 пикселей
Соотношение сторон : 16:9
Режим частоты кадров : Постоянный
Частота кадров : 23,976 кадра/сек
Цветовое пространство : YUV
Субдискретизация насыщенности : 4:2:0
Битовая глубина : 8 бит
Тип развёртки : Прогрессивная
Бит/(Пиксели*Кадры) : 0.201
Размер потока : 7,90 Гбайт (75%)
Заголовок : 3D Half Side by Side, Left first
Библиотека кодирования : x264 core 130 r2273 b3065e6
Настройки программы : cabac=1 / ref=4 / deblock=1:-3:-3 / analyse=0x3:0x113 / me=umh / subme=10 / psy=1 / psy_rd=1.05:0.10 / mixed_ref=1 / me_range=48 / chroma_me=1 / trellis=2 / 8x8dct=1 / cqm=0 / deadzone=21,11 / fast_pskip=0 / chroma_qp_offset=-2 / threads=18 / lookahead_threads=1 / sliced_threads=0 / nr=0 / decimate=1 / interlaced=0 / bluray_compat=0 / constrained_intra=0 / bframes=6 / b_pyramid=2 / b_adapt=2 / b_bias=0 / direct=3 / weightb=1 / open_gop=0 / weightp=2 / keyint=250 / keyint_min=23 / scenecut=40 / intra_refresh=0 / rc_lookahead=40 / rc=2pass / mbtree=0 / bitrate=10000 / ratetol=2.0 / qcomp=0.70 / qpmin=0 / qpmax=69 / qpstep=4 / cplxblur=20.0 / qblur=0.5 / vbv_maxrate=35000 / vbv_bufsize=30000 / nal_hrd=none / ip_ratio=1.40 / pb_ratio=1.30 / aq=2:1.00
Default : Да
Forced : Нет

Аудио #1
Идентификатор : 2
Формат : DTS
Формат/Информация : Digital Theater Systems
Режим : 16
Параметр Endianness формата : Big
Идентификатор кодека : A_DTS
Продолжительность : 1 ч. 56 м.
Вид битрейта : Постоянный
Битрейт : 1509 Кбит/сек
Каналы : 6 каналов
Расположение каналов : Front: L C R, Side: L R, LFE
Частота : 48,0 КГц
Битовая глубина : 24 бит
Метод сжатия : С потерями
Размер потока : 1,22 Гбайт (12%)
Заголовок : DTS 5.1 @ 1536 kbps - DUB
Язык : Russian
Default : Да
Forced : Нет

Аудио #2
Идентификатор : 3
Формат : DTS
Формат/Информация : Digital Theater Systems
Режим : 16
Параметр Endianness формата : Big
Идентификатор кодека : A_DTS
Продолжительность : 1 ч. 56 м.
Вид битрейта : Постоянный
Битрейт : 1509 Кбит/сек
Каналы : 6 каналов
Расположение каналов : Front: L C R, Side: L R, LFE
Частота : 48,0 КГц
Битовая глубина : 24 бит
Метод сжатия : С потерями
Размер потока : 1,22 Гбайт (12%)
Язык : English
Default : Нет
Forced : Нет

Меню
00:00:00.000 : :1 - 0:00:00
00:05:05.180 : :2 - 0:05:05
00:13:04.659 : :3 - 0:13:04
00:20:31.188 : :4 - 0:20:31
00:27:02.579 : :5 - 0:27:02
00:32:38.039 : :6 - 0:32:38
00:39:35.331 : :7 - 0:39:35
00:49:06.152 : :8 - 0:49:06
00:55:22.027 : :9 - 0:55:22
01:01:41.239 : :10 - 1:01:41
01:09:18.654 : :11 - 1:09:18
01:17:03.035 : :12 - 1:17:03
01:22:09.842 : :13 - 1:22:09
01:27:51.558 : :14 - 1:27:51
01:36:41.587 : :15 - 1:36:41
01:45:14.099 : :16 - 1:45:14
01:48:46.645 : :17 - 1:48:46

Формат3D

Стереоформат: Горизонтальная анаморфная стереопара. Для просмотра этого фильма в 3D формате необходимо соответствующее оборудование.

  


Рейтинг: 4.3/5 | Оценок: 3
ПОДЕЛИТЬСЯ
Реклама
Реклама
Рекомендуем к прочтению
Информация:
Уважаемый посетитель, Вы зашли на сайт как незарегистрированный пользователь.
Мы рекомендуем Вам зарегистрироваться либо войти на сайт под своим именем.
Всего комментариев: 1
prod_sol написал(а) 3 марта 2016 21:22
Раздача честных 5 метров!!!!
Надеюсь и качество не подкачает.
Информация
Посетители, находящиеся в группе Гости, не могут оставлять комментарии к данной публикации.