×
Реклама
Присоединяйся
ТОП Пользователей
Реклама видна только незарегистрированным пользователям. Зарегистрироваться.
G.I. Joe: Бросок кобры 2 / G.I. Joe: Retaliation (2013) BDRip 1080p | 3D-Video | Лицензия | Theatrical Cut
4-12-2013, 19:58
Bender 0 1 719
G.I. Joe: Бросок кобры 2 / G.I. Joe: Retaliation (2013) BDRip 1080p | 3D-Video | Лицензия | Theatrical Cut
  • Страна: США
  • Студия: Di Bonaventura Pictures, Hasbro Inc., Metro-Goldwyn-Mayer, Paramount Pictures
  • Жанр: фантастика, боевик, триллер, приключения
  • Год выпуска: 2013
  • Продолжительность: 01:50:16

  • Перевод: русский профессиональный (полное дублирование) [Лицензия, BD CEE]
  • Оригинальная аудиодорожка: английская
  • Русские субтитры: есть
  • Режиссер: Джон М. Чу / Jon M. Chu
  • В ролях: Ченнинг Татум, Брюс Уиллис, Дуэйн Джонсон, Эдрианн Палики, Рэй Стивенсон, RZA, Джозеф Маццелло, Уолтон Гоггинс, Рэй Парк, Арнольд Вослу, Ли Бён Хон, Элоди Юнг, Фаран Таир, Мэтт Джералд, Ан Нуу Нгуйен, Д.Дж. Котрона
  • Роли дублировали: Юрий Деркач, Ирина Киреева, Владимир Герасимов, Александр Гаврилин, Дмитрий Поляновский


    Во второй части отряд «G.I. Joe» вновь объявит вызов группировке «Кобра» и вступит в противостояние с правительством…

  • Качество: BDRip 1080p
  • Контейнер: MKV
  • Формат 3D: Half OverUnder / Вертикальная анаморфная стереопара
  • Порядок ракурсов: левый ракурс первый
  • Поддержка автоматического запуска 3D на вашем TV (frame paking): да
  • Видео кодек: x264
  • Аудио кодек: AC3
  • Видео: AVC / High@L4.1 / 2 pass / 23,976 fps / 1920x1080p (16:9) / 10,5 Mbps / 0.211
  • Аудио 1:  AC3 / 5.1 ch / 640 kbps / Русский дубляж, BD CEE
  • Аудио 2:  AC3 / 5.1 ch / 640 kbps / Английский original, BD CEE
  • Субтитры: [softsub SRT]
     Русские Full, BD CEE
     Украинские Full, BD CEE
     Английские Full, BD CEE
  • Дополнительно: Сохранены оригинальные чаптеры (главы) как на Blu-ray





  • MediaInfo:
  • Общее
  • Уникальный идентификатор : 251685313178373289561658611847079093307 (0xBD58D3FFC16F6D269C079A7D8FC7643B)
  • Полное имя : F:Скачка торрентG.I.Joe.Retaliation.3D.2013.Theatrical.cut.halfOU( Killbrain).mkv
  • Формат : Matroska
  • Версия формата : Version 4 / Version 2
  • Размер файла : 9,06 Гбайт
  • Продолжительность : 1 ч. 50 м.
  • Общий поток : 11,8 Мбит/сек
  • Название фильма : G.I. Joe: Retaliation 3D (2013) [Theatrical cut] by Killbrain
  • Дата кодирования : UTC 2013-08-01 14:38:20
  • Программа кодирования : mkvmerge v6.3.0 ('You can't stop me!') built on Jun 28 2013 20:09:41
  • Библиотека кодирования : libebml v1.3.0 + libmatroska v1.4.0

  • Видео
  • Идентификатор : 1
  • Формат : AVC
  • Формат/Информация : Advanced Video Codec
  • Профиль формата : High@L4.1
  • Параметр CABAC формата : Да
  • Параметр ReFrames формата : 4 кадра
  • Идентификатор кодека : V_MPEG4/ISO/AVC
  • Продолжительность : 1 ч. 50 м.
  • Битрейт : 10,5 Мбит/сек
  • Ширина : 1920 пикселей
  • Высота : 1080 пикселей
  • Соотношение сторон : 16:9
  • Режим частоты кадров : Постоянный
  • Частота кадров : 23,976 кадра/сек
  • Цветовое пространство : YUV
  • Субдискретизация насыщенности : 4:2:0
  • Битовая глубина : 8 бит
  • Тип развёртки : Прогрессивная
  • Бит/(Пиксели*Кадры) : 0.211
  • Размер потока : 7,90 Гбайт (87%)
  • Заголовок : G.I. Joe: Retaliation 3D (2013) [Theatrical cut]
  • Библиотека кодирования : x264 core 135 r2345 f0c1c53
  • Настройки программы : cabac=1 / ref=4 / deblock=1:-3:-3 / analyse=0x3:0x113 / me=umh / subme=10 / psy=1 / psy_rd=1.00:0.15 / mixed_ref=1 / me_range=32 / chroma_me=1 / trellis=2 / 8x8dct=1 / cqm=0 / deadzone=21,11 / fast_pskip=0 / chroma_qp_offset=-3 / threads=3 / lookahead_threads=1 / sliced_threads=0 / nr=0 / decimate=0 / interlaced=0 / bluray_compat=0 / constrained_intra=0 / bframes=6 / b_pyramid=2 / b_adapt=2 / b_bias=0 / direct=3 / weightb=1 / open_gop=0 / weightp=2 / keyint=240 / keyint_min=24 / scenecut=40 / intra_refresh=0 / rc_lookahead=60 / rc=2pass / mbtree=0 / bitrate=10500 / ratetol=1.0 / qcomp=0.65 / qpmin=0 / qpmax=69 / qpstep=4 / cplxblur=20.0 / qblur=0.5 / vbv_maxrate=40000 / vbv_bufsize=30000 / nal_hrd=none / frame-packing=4 / ip_ratio=1.40 / pb_ratio=1.30 / aq=2:0.80
  • Язык : English
  • Default : Да
  • Forced : Нет

  • Аудио #1
  • Идентификатор : 2
  • Формат : AC-3
  • Формат/Информация : Audio Coding 3
  • Расширение режима : CM (complete main)
  • Параметр Endianness формата : Big
  • Идентификатор кодека : A_AC3
  • Продолжительность : 1 ч. 50 м.
  • Вид битрейта : Постоянный
  • Битрейт : 640 Кбит/сек
  • Каналы : 6 каналов
  • Расположение каналов : Front: L C R, Side: L R, LFE
  • Частота : 48,0 КГц
  • Битовая глубина : 16 бит
  • Метод сжатия : С потерями
  • Размер потока : 505 Мбайт (5%)
  • Заголовок : AC3 / 5.1 ch / 640 kbps / Русский дубляж, BD CEE
  • Язык : Russian
  • Default : Да
  • Forced : Нет

  • Аудио #2
  • Идентификатор : 3
  • Формат : AC-3
  • Формат/Информация : Audio Coding 3
  • Расширение режима : CM (complete main)
  • Параметр Endianness формата : Big
  • Идентификатор кодека : A_AC3
  • Продолжительность : 1 ч. 50 м.
  • Вид битрейта : Постоянный
  • Битрейт : 640 Кбит/сек
  • Каналы : 6 каналов
  • Расположение каналов : Front: L C R, Side: L R, LFE
  • Частота : 48,0 КГц
  • Битовая глубина : 16 бит
  • Метод сжатия : С потерями
  • Размер потока : 505 Мбайт (5%)
  • Заголовок : AC3 / 5.1 ch / 640 kbps / Английский original, BD CEE
  • Язык : English
  • Default : Нет
  • Forced : Нет

  • Текст #1
  • Идентификатор : 4
  • Формат : UTF-8
  • Идентификатор кодека : S_TEXT/UTF8
  • Идентификатор кодека/Информация : UTF-8 Plain Text
  • Заголовок : Full, BD CEE
  • Язык : Russian
  • Default : Нет
  • Forced : Нет

  • Текст #2
  • Идентификатор : 5
  • Формат : UTF-8
  • Идентификатор кодека : S_TEXT/UTF8
  • Идентификатор кодека/Информация : UTF-8 Plain Text
  • Заголовок : Full, BD CEE
  • Язык : Ukrainian
  • Default : Нет
  • Forced : Нет

  • Текст #3
  • Идентификатор : 6
  • Формат : UTF-8
  • Идентификатор кодека : S_TEXT/UTF8
  • Идентификатор кодека/Информация : UTF-8 Plain Text
  • Заголовок : Full, BD CEE
  • Язык : English
  • Default : Нет
  • Forced : Нет

  • Меню
  • 00:00:00.000 : :Chapter 01
  • 00:06:08.242 : :Chapter 02
  • 00:12:52.313 : :Chapter 03
  • 00:17:35.471 : :Chapter 04
  • 00:25:37.369 : :Chapter 05
  • 00:30:56.187 : :Chapter 06
  • 00:39:00.880 : :Chapter 07
  • 00:42:40.975 : :Chapter 08
  • 00:48:31.241 : :Chapter 09
  • 00:54:02.989 : :Chapter 10
  • 01:01:46.536 : :Chapter 11
  • 01:07:34.675 : :Chapter 12
  • 01:13:56.807 : :Chapter 13
  • 01:17:54.461 : :Chapter 14
  • 01:23:45.979 : :Chapter 15
  • 01:31:12.758 : :Chapter 16
  • 01:41:13.358 : :Chapter 17

  •     


  • Рейтинг: 4.3/5 | Оценок: 3
    ПОДЕЛИТЬСЯ
    Реклама
    Реклама
    Рекомендуем к прочтению
    Информация:
    Уважаемый посетитель, Вы зашли на сайт как незарегистрированный пользователь.
    Мы рекомендуем Вам зарегистрироваться либо войти на сайт под своим именем.
    Всего комментариев: 0
    Информация
    Посетители, находящиеся в группе Гости, не могут оставлять комментарии к данной публикации.