×
Реклама
Присоединяйся
ТОП Пользователей
Реклама видна только незарегистрированным пользователям. Зарегистрироваться.
Перси Джексон и Море чудовищ / Percy Jackson: Sea of Monsters (2013) BDRip 1080p | 3D-Video | halfOU
4-12-2013, 19:55
Bender 0 2 581
Перси Джексон и Море чудовищ / Percy Jackson: Sea of Monsters (2013) BDRip 1080p | 3D-Video | halfOU
Год выпуска: 2013
Страна: США (20th Century Fox, Fox 2000 Pictures, TSG Entertainment)
Жанр: Фэнтези, Приключения, Семейный
Продолжительность: 01:46:09

Перевод: Профессиональные дублированные Русский и Украинский

Режиссер: Тор Фройденталь / Thor Freudenthal



Роли исполняли (дублировали):

          

Percy Jackson - Логан Лерман (Глеб Гаврилов)
Annabeth - Александра Даддарио
Tyson - Дуглас Смит (Игорь Сергеев)
Clarisse - Ливэн Рамбин
Grover - Брэндон Т. Джексон
Luke - Джейк Эйбел
Chiron - Энтони Хэд (Станислав Концевич)
Mr. D - Стэнли Туччи
Thalia - Палома Квиатковски
Hermes - Нэйтан Филлион
Zeus - Шон Бин



Описание: Лагерь полукровок атакует Люк Кастеллан, который раскрывает свои планы по уничтожению горы Олимп. Наставник Перси, Хирон узнает, что Люк отравил волшебное дерево, которое отвечает за барьер, защищающий Лагерь Полукровок, и которое создано из Талии Грейс, дочери Зевса, убитой циклопом. Аннабет Чейз выясняет, что Золотое Руно может восстановить дерево, и директор лагеря, Дионис, посылает Клариссу Ла Ру, дочь Ареса и соперницу Перси, найти его…

Знаете ли вы, что...:
Фильм снят по мотивам романа Рика Риордана «Перси Джексон и Море чудовищ» (The Sea of Monsters, 2006).
Ливэн Рамбин для своей роли Клариссы приходилось носить коричневый парик.
Планировалось, что фильм будет выпущен 15 марта 2013 года, но в мае 2012 года дата релиза была перенесена на 14 августа 2013 года.
Александра Даддарио перекрасила волосы на светлые для роли Аннабет Чейз.
20 июня — 22 июля съемки проходили в Новом Орлеане.
Мистер Ди или Дионис (Стэнли Туччи) все же появился в этом фильме. В первом фильме («Перси Джексон и похититель молний» (2010)) его персонаж был удален.
Несмотря на то, что фильм был снят в формате «Супер 35», в финальных титрах указано «снято в Panavision».
Во время съемок сцен на яхте и шлюпке Александра Даддарио обнаружила, что у нее есть склонность к морской болезни. Интересно то, что у ее персонажа в романе эта болезнь развивается на корабле «Месть королевы Анны».Во время съемок сцен на яхте и шлюпке Александра Даддарио обнаружила, что у нее есть склонность к морской болезни. Интересно то, что у ее персонажа в романе эта болезнь развивается на корабле «Месть королевы Анны».
Ошибки в фильме (Могут содержаться спойлеры!):
В сценах в Вашингтоне, Округ Колумбия, на фоне видны небоскребы. По закону, принятому в 1910 году, ограничена высота зданий, самое высокое — 64 метра.
Когда Аннабет обнаруживает магические силы Золотого Руна на планшете, она затем подбегает к Гроверу, чтобы показать это, в этот момент можно заметить, что на его экране ничего нет.
Техн. детали съёмки:
Съёмки: 16 апреля 2012 — 12 июля 2012
Камера: Arriflex 435 ES, Panavision Primo Lenses
Panavision Panaflex Millennium XL2, Panavision Primo Lenses
Формат копии: 35 mm (anamorphic)
D-Cinema (also 3-D version)
Формат съёмок: 35 mm

Премьера: 7 августа 2013 (22 августа 2013)
Релиз на Blu-Ray (DVD) (Россия): 12 декабря 2013
Бюджет: $90 000 000
Кассовые сборы: $199 387 177


Качество: BDRip (by Ash61)
Контейнер: MKV
Формат 3D: Half OverUnder / Вертикальная анаморфная стереопара
Порядок ракурсов: левый ракурс первый
Видео кодек: x264
Аудио кодек: AC3


Видео: AVC / 23,976 fps / 1920х1080p / ~9,3 Mbps

Аудио:
#1 - Русский / AC3 / 48 KHz / 5.1 ch / 640 Kbps (Дубляж - BD CEE)
#2 - Украинский / AC3 / 48 KHz / 5.1 ch / 448 Kbps (Дубляж - BD CEE)
#3 - Английский / AC3 / 48 KHz / 5.1 ch / 640 Kbps (Original - BD 3D)

Субтитры (внешние SRT UTF-8):
#1 - Русские Полные
#2 - Украинские Полные
#3 - English Full
#4 - English SDH-Color

MediaInfo
General
Unique ID : 215720467505172620106888228252209540318 (0xA24A40345552308BBCAF6D2EBB526CDE)
Complete name : E:PercyJackson.SeaOfMonsters(2013)3D-halfOU(Ash61)PercyJackson.SeaOfMonsters(2013)3D-halfOU(Ash61).mkv
Format : Matroska
Format version : Version 2
File size : 8.31 GiB
Duration : 1h 46mn
Overall bit rate : 11.2 Mbps
Movie name : Перси Джексон и Море чудовищ / Percy Jackson: Sea of Monsters (2013) 3D
Encoded date : UTC 2013-11-29 02:35:16
Writing application : mkvmerge v5.8.0 ('No Sleep / Pillow') built on Sep 2 2012 15:37:04
Writing library : libebml v1.2.3 + libmatroska v1.3.0

Video
ID : 1
Format : AVC
Format/Info : Advanced Video Codec
Format profile : High@L4.1
Format settings, CABAC : Yes
Format settings, ReFrames : 4 frames
Codec ID : V_MPEG4/ISO/AVC
Duration : 1h 46mn
Bit rate : 9 255 Kbps
Width : 1 920 pixels
Height : 1 080 pixels
Display aspect ratio : 16:9
Frame rate mode : Constant
Frame rate : 23.976 fps
Color space : YUV
Chroma subsampling : 4:2:0
Bit depth : 8 bits
Scan type : Progressive
Bits/(Pixel*Frame) : 0.186
Stream size : 6.86 GiB (83%)
Title : BDRip by Ash61
Writing library : x264 core 129 r2245 bc13772
Encoding settings : cabac=1 / ref=4 / deblock=1:-3:-3 / analyse=0x3:0x113 / me=umh / subme=10 / psy=1 / psy_rd=1.00:0.15 / mixed_ref=1 / me_range=32 / chroma_me=1 / trellis=2 / 8x8dct=1 / cqm=0 / deadzone=21,11 / fast_pskip=1 / chroma_qp_offset=-3 / threads=12 / lookahead_threads=2 / sliced_threads=0 / nr=0 / decimate=1 / interlaced=0 / bluray_compat=0 / constrained_intra=0 / bframes=9 / b_pyramid=2 / b_adapt=2 / b_bias=0 / direct=3 / weightb=1 / open_gop=0 / weightp=2 / keyint=250 / keyint_min=23 / scenecut=40 / intra_refresh=0 / rc_lookahead=60 / rc=crf / mbtree=1 / crf=17.0 / qcomp=0.70 / qpmin=0 / qpmax=69 / qpstep=4 / vbv_maxrate=40000 / vbv_bufsize=30000 / crf_max=0.0 / nal_hrd=none / frame-packing=4 / ip_ratio=1.40 / aq=1:0.70
Language : English
Default : Yes
Forced : No

Audio #1
ID : 2
Format : AC-3
Format/Info : Audio Coding 3
Mode extension : CM (complete main)
Format settings, Endianness : Big
Codec ID : A_AC3
Duration : 1h 46mn
Bit rate mode : Constant
Bit rate : 640 Kbps
Channel(s) : 6 channels
Channel positions : Front: L C R, Side: L R, LFE
Sampling rate : 48.0 KHz
Bit depth : 16 bits
Compression mode : Lossy
Stream size : 486 MiB (6%)
Title : Дубляж - BD CEE
Language : Russian
Default : Yes
Forced : No

Audio #2
ID : 3
Format : AC-3
Format/Info : Audio Coding 3
Mode extension : CM (complete main)
Format settings, Endianness : Big
Codec ID : A_AC3
Duration : 1h 46mn
Bit rate mode : Constant
Bit rate : 448 Kbps
Channel(s) : 6 channels
Channel positions : Front: L C R, Side: L R, LFE
Sampling rate : 48.0 KHz
Bit depth : 16 bits
Compression mode : Lossy
Stream size : 340 MiB (4%)
Title : Дубляж - BD CEE
Language : Ukrainian
Default : No
Forced : No

Audio #3
ID : 4
Format : AC-3
Format/Info : Audio Coding 3
Mode extension : CM (complete main)
Format settings, Endianness : Big
Codec ID : A_AC3
Duration : 1h 46mn
Bit rate mode : Constant
Bit rate : 640 Kbps
Channel(s) : 6 channels
Channel positions : Front: L C R, Side: L R, LFE
Sampling rate : 48.0 KHz
Bit depth : 16 bits
Compression mode : Lossy
Stream size : 486 MiB (6%)
Title : Original - BD 3D
Language : English
Default : No
Forced : No

Menu
00:00:00.000 : :1
00:04:06.455 : :2
00:06:44.070 : :3
00:09:32.697 : :4
00:13:54.125 : :5
00:19:18.157 : :6
00:20:49.039 : :7
00:22:11.497 : :8
00:25:31.530 : :9
00:28:23.827 : :10
00:30:28.535 : :11
00:33:20.999 : :12
00:37:02.262 : :13
00:39:50.597 : :14
00:45:17.381 : :15
00:48:51.178 : :16
00:52:43.952 : :17
00:56:36.101 : :18
01:00:20.867 : :19
01:03:36.896 : :20
01:05:41.688 : :21
01:10:42.697 : :22
01:12:33.182 : :23
01:16:53.818 : :24
01:19:40.442 : :25
01:23:02.769 : :26
01:25:46.808 : :27
01:29:55.265 : :28
01:32:48.313 : :29
01:34:26.244 : :30
01:36:08.972 : :31
01:37:40.188 : :32

    


Рейтинг: 4.3/5 | Оценок: 3
ПОДЕЛИТЬСЯ
Реклама
Реклама
Рекомендуем к прочтению
Информация:
Уважаемый посетитель, Вы зашли на сайт как незарегистрированный пользователь.
Мы рекомендуем Вам зарегистрироваться либо войти на сайт под своим именем.
Всего комментариев: 0
Информация
Посетители, находящиеся в группе Гости, не могут оставлять комментарии к данной публикации.