×
Реклама
Присоединяйся
ТОП Пользователей
Реклама видна только незарегистрированным пользователям. Зарегистрироваться.
Смурфики 2 / The Smurfs 2 (2013) BDRip 1080p | 3D-Video | halfOU
4-12-2013, 19:47
Bender 0 1 266
Смурфики 2 / The Smurfs 2 (2013) BDRip 1080p | 3D-Video | halfOU
Год выпуска: 2013
Страна: США (Columbia Pictures, Sony Pictures Animation, Kerner Entertainment Company)
Жанр: Мультфильм, Фэнтези, Комедия, Семейный
Продолжительность: 01:44:54

Перевод: Профессиональные дублированные Русский и Украинский

Режиссер: Раджа Госнелл / Raja Gosnell



Роли исполняли, озвучивали (дублировали):

             

Gargamel - Хэнк Азария
Patrick - Нил Патрик Харрис
Victor - Брендан Глисон
Grace - Джейма Мейс
Папа-смурф (озвучка) - Джонатан Уинтерс (Сергей Паршин)
Smurfette (озвучка) - Кэти Перри (Нюша Шурочкина)
Заноза (озвучка) - Кристина Риччи
Крепыш (озвучка) - Дж.Б. Смув
Ворчун (озвучка) - Джордж Лопес
Растяпа (озвучка) - Антон Ельчин
Красавчик (озвучка) - Джон Оливер
Azrael (озвучка) - Фрэнк Уэлкер
Умник (озвучка) - Фред Армизен
Смельчак (озвучка) - Алан Камминг



Описание: Гаргамел создаёт Хакуса и Векси, как две капли воды похожую на смурфиков злобную парочку, надеясь всё-таки обрести магическую силу. Когда он узнаёт, что лишь настоящий смурф может дать ему то, что он хочет, и лишь Смурфетта способна превратить Хакуса и Векси в настоящих смурфов, Гаргамел похищает Смурфетту и берёт её с собой в Париж, планируя сделать её своей прислужницей. Но смурфики — Папа, Растяпа, Смельчак, Ворчун, Красавчик, Благоразумник — и их друзья из Нью-Йорка этого так не оставят. Тем более что к ним присоединился новорождённый Голубчик.

Доп. информация: Русскоязычный видеоряд

Техн. детали съёмки
Съёмки: 17 июля 2012 — нет данных
Формат изображения: 1.85 : 1
Камера: Sony CineAlta F65
Формат копии: 35 mm (spherical)
D-Cinema (also 3-D version)
Формат съёмок: SRMemory
Изображение: цветное
Язык: английский, французский

Премьера: 28 июля 2013 (1 августа 2013)
Релиз на Blu-Ray (DVD) (Россия): 19 ноября 2013
Бюджет: $105 000 000
Кассовые сборы: $344 336 777


Качество: BDRip (by Ash61)
Контейнер: MKV
Формат 3D: Half OverUnder / Вертикальная анаморфная стереопара
Порядок ракурсов: левый ракурс первый
Видео кодек: x264
Аудио кодек: AC3


Видео: AVC / 23,976 fps / 1920х1080p / 11.2 Mbps

Аудио:
#1 - Русский / AC3 / 48 KHz / 5.1 ch / 640 Kbps (Дубляж - BD CEE)
#2 - Украинский / AC3 / 48 KHz / 5.1 ch / 640 Kbps (Дубляж - BD CEE)
#3 - Английский / AC3 / 48 KHz / 5.1 ch / 640 Kbps (Original - BD 3D)

Субтитры (Внешние SRT UTF-8):
#1 - Русские Полные
#2 - English Full

MediaInfo
General
Unique ID : 230935730425742778442394917093357042299 (0xADBC9A959FDAC835A67E4A44EC2EBA7B)
Complete name : E:TheSmurfs2(2013)3D-halfOU(Ash61)TheSmurfs2(2013)3D-halfOU(Ash61).mkv
Format : Matroska
Format version : Version 2
File size : 9.79 GiB
Duration : 1h 44mn
Overall bit rate : 13.4 Mbps
Movie name : Смурфики 2 / The Smurfs 2 (2013) 3D
Encoded date : UTC 2013-11-16 06:50:37
Writing application : mkvmerge v5.8.0 ('No Sleep / Pillow') built on Sep 2 2012 15:37:04
Writing library : libebml v1.2.3 + libmatroska v1.3.0

Video
ID : 1
Format : AVC
Format/Info : Advanced Video Codec
Format profile : High@L4.1
Format settings, CABAC : Yes
Format settings, ReFrames : 4 frames
Codec ID : V_MPEG4/ISO/AVC
Bit rate : 11.2 Mbps
Width : 1 920 pixels
Height : 1 080 pixels
Display aspect ratio : 16:9
Frame rate mode : Variable
Original frame rate : 23.976 fps
Color space : YUV
Chroma subsampling : 4:2:0
Bit depth : 8 bits
Scan type : Progressive
Title : Rip by Ash61
Writing library : x264 core 129 r2245 bc13772
Encoding settings : cabac=1 / ref=4 / deblock=1:-3:-3 / analyse=0x3:0x113 / me=umh / subme=10 / psy=1 / psy_rd=1.00:0.15 / mixed_ref=1 / me_range=32 / chroma_me=1 / trellis=2 / 8x8dct=1 / cqm=0 / deadzone=21,11 / fast_pskip=1 / chroma_qp_offset=-3 / threads=12 / lookahead_threads=2 / sliced_threads=0 / nr=0 / decimate=1 / interlaced=0 / bluray_compat=0 / constrained_intra=0 / bframes=8 / b_pyramid=2 / b_adapt=2 / b_bias=0 / direct=3 / weightb=1 / open_gop=0 / weightp=2 / keyint=250 / keyint_min=23 / scenecut=40 / intra_refresh=0 / rc_lookahead=60 / rc=crf / mbtree=1 / crf=17.0 / qcomp=0.70 / qpmin=0 / qpmax=69 / qpstep=4 / vbv_maxrate=40000 / vbv_bufsize=30000 / crf_max=0.0 / nal_hrd=none / frame-packing=4 / ip_ratio=1.40 / aq=1:0.70
Language : English
Default : Yes
Forced : No

Audio #1
ID : 2
Format : AC-3
Format/Info : Audio Coding 3
Mode extension : CM (complete main)
Format settings, Endianness : Big
Codec ID : A_AC3
Duration : 1h 44mn
Bit rate mode : Constant
Bit rate : 640 Kbps
Channel(s) : 6 channels
Channel positions : Front: L C R, Side: L R, LFE
Sampling rate : 48.0 KHz
Bit depth : 16 bits
Compression mode : Lossy
Stream size : 480 MiB (5%)
Title : Дубляж - BD CEE
Language : Russian
Default : Yes
Forced : No

Audio #2
ID : 3
Format : AC-3
Format/Info : Audio Coding 3
Mode extension : CM (complete main)
Format settings, Endianness : Big
Codec ID : A_AC3
Duration : 1h 44mn
Bit rate mode : Constant
Bit rate : 640 Kbps
Channel(s) : 6 channels
Channel positions : Front: L C R, Side: L R, LFE
Sampling rate : 48.0 KHz
Bit depth : 16 bits
Compression mode : Lossy
Stream size : 480 MiB (5%)
Title : Дубляж - BD CEE
Language : Ukrainian
Default : No
Forced : No

Audio #3
ID : 4
Format : AC-3
Format/Info : Audio Coding 3
Mode extension : CM (complete main)
Format settings, Endianness : Big
Codec ID : A_AC3
Duration : 1h 44mn
Bit rate mode : Constant
Bit rate : 640 Kbps
Channel(s) : 6 channels
Channel positions : Front: L C R, Side: L R, LFE
Sampling rate : 48.0 KHz
Bit depth : 16 bits
Compression mode : Lossy
Stream size : 480 MiB (5%)
Title : Original - BD 3D
Language : English
Default : No
Forced : No

Menu
00:00:00.000 : :1
00:05:00.133 : :2
00:11:12.755 : :3
00:18:14.092 : :4
00:23:18.522 : :5
00:27:54.589 : :6
00:34:25.480 : :7
00:41:09.341 : :8
00:46:10.434 : :9
00:50:59.097 : :10
00:56:47.862 : :11
01:02:33.875 : :12
01:07:06.772 : :13
01:14:10.195 : :14
01:21:05.819 : :15
01:28:24.590 : :16

     


Рейтинг: 4.3/5 | Оценок: 3
ПОДЕЛИТЬСЯ
Реклама
Реклама
Рекомендуем к прочтению
Информация:
Уважаемый посетитель, Вы зашли на сайт как незарегистрированный пользователь.
Мы рекомендуем Вам зарегистрироваться либо войти на сайт под своим именем.
Всего комментариев: 0
Информация
Посетители, находящиеся в группе Гости, не могут оставлять комментарии к данной публикации.