×
Реклама
Присоединяйся
ТОП Пользователей
Реклама видна только незарегистрированным пользователям. Зарегистрироваться.
Удивительная Африка / Amazing Africa (2013) BDRip 1080p | 3D-Video | halfOU
4-12-2013, 19:23
Bender 0 1 483
Удивительная Африка / Amazing Africa (2013) BDRip 1080p | 3D-Video | halfOU
Год выпуска: 2013
Страна: США, Германия (Universal Pictures, Los Banditos Films, Vision Films)
Жанр: Документальный
Продолжительность: 00:58:26

Перевод: Профессиональный дублированный

Режиссеры: Benjamin Eicher, Timo Joh. Mayer

Описание: Кто-нибудь из вас бывал в Африке? Если нет, то вам непременно нужно туда отправиться, причем вовсе не обязательно для этого совершать длительные перелеты, достаточно, лишь включить телевизор и посмотреть данную картину. В ней вы найдете ответы на все свои вопросы, узнаете, кто обитает в этой жаркой стране, каким образом, местным жителям удается соседствовать со столь разнообразным животным миром. Как и кто здесь отстаивает свое право на существование и добывает себе пищу.


Релиз на Blu-Ray (DVD) (Россия): 21 ноября 2013


Качество: BDRip (by Ash61)
Контейнер: MKV
Формат 3D: Half OverUnder / Вертикальная анаморфная стереопара
Порядок ракурсов: левый ракурс первый
Видео кодек: x264
Аудио кодек: AC3


Видео: AVC / 23,976 fps / 1920х1080p / 21.6 Mbps

Аудио:
#1 - Русский / AC3 / 48 KHz / 2 ch / 448 Kbps (Дубляж - BD 3D)
#2 - Английский / AC3 / 48 KHz / 2 ch / 448 Kbps

Субтитры: Отсутствуют

MediaInfo
General
Unique ID : 172615179592928522767024168625680576301 (0x81DC796D41CD7F6CB4B7EFC803426F2D)
Complete name : E:AmazingAfrica(2013)3D-halfOU(Ash61).mkv
Format : Matroska
Format version : Version 2
File size : 9.36 GiB
Duration : 58mn 25s
Overall bit rate : 22.9 Mbps
Movie name : Удивительная Африка / Amazing Africa (2013) 3D
Encoded date : UTC 2013-11-17 12:16:06
Writing application : mkvmerge v5.8.0 ('No Sleep / Pillow') built on Sep 2 2012 15:37:04
Writing library : libebml v1.2.3 + libmatroska v1.3.0

Video
ID : 1
Format : AVC
Format/Info : Advanced Video Codec
Format profile : High@L4.1
Format settings, CABAC : Yes
Format settings, ReFrames : 4 frames
Codec ID : V_MPEG4/ISO/AVC
Duration : 58mn 25s
Bit rate : 21.6 Mbps
Width : 1 920 pixels
Height : 1 080 pixels
Display aspect ratio : 16:9
Frame rate mode : Constant
Frame rate : 23.976 fps
Color space : YUV
Chroma subsampling : 4:2:0
Bit depth : 8 bits
Scan type : Progressive
Bits/(Pixel*Frame) : 0.434
Stream size : 8.81 GiB (94%)
Title : BDRip by Ash61
Writing library : x264 core 129 r2245 bc13772
Encoding settings : cabac=1 / ref=4 / deblock=1:-3:-3 / analyse=0x3:0x113 / me=umh / subme=10 / psy=1 / psy_rd=1.00:0.15 / mixed_ref=1 / me_range=32 / chroma_me=1 / trellis=2 / 8x8dct=1 / cqm=0 / deadzone=21,11 / fast_pskip=1 / chroma_qp_offset=-3 / threads=12 / lookahead_threads=2 / sliced_threads=0 / nr=0 / decimate=1 / interlaced=0 / bluray_compat=0 / constrained_intra=0 / bframes=9 / b_pyramid=2 / b_adapt=2 / b_bias=0 / direct=3 / weightb=1 / open_gop=0 / weightp=2 / keyint=250 / keyint_min=23 / scenecut=40 / intra_refresh=0 / rc_lookahead=60 / rc=crf / mbtree=1 / crf=17.0 / qcomp=0.70 / qpmin=0 / qpmax=69 / qpstep=4 / vbv_maxrate=40000 / vbv_bufsize=30000 / crf_max=0.0 / nal_hrd=none / frame-packing=4 / ip_ratio=1.40 / aq=1:0.70
Default : Yes
Forced : No

Audio #1
ID : 2
Format : AC-3
Format/Info : Audio Coding 3
Mode extension : CM (complete main)
Format settings, Endianness : Big
Codec ID : A_AC3
Duration : 58mn 25s
Bit rate mode : Constant
Bit rate : 448 Kbps
Channel(s) : 2 channels
Channel positions : Front: L R
Sampling rate : 48.0 KHz
Bit depth : 16 bits
Compression mode : Lossy
Stream size : 187 MiB (2%)
Title : Дубляж - BD 3D
Language : Russian
Default : Yes
Forced : No

Audio #2
ID : 3
Format : AC-3
Format/Info : Audio Coding 3
Mode extension : CM (complete main)
Format settings, Endianness : Big
Codec ID : A_AC3
Duration : 58mn 25s
Bit rate mode : Constant
Bit rate : 448 Kbps
Channel(s) : 2 channels
Channel positions : Front: L R
Sampling rate : 48.0 KHz
Bit depth : 16 bits
Compression mode : Lossy
Stream size : 187 MiB (2%)
Language : English
Default : No
Forced : No

Menu
00:00:00.000 : :1
00:06:35.478 : :2
00:13:09.163 : :3
00:22:16.460 : :4
00:29:34.272 : :5
00:38:01.404 : :6
00:44:16.737 : :7
00:49:47.943 : :8

     


Рейтинг: 4.3/5 | Оценок: 3
ПОДЕЛИТЬСЯ
Реклама
Реклама
Рекомендуем к прочтению
Информация:
Уважаемый посетитель, Вы зашли на сайт как незарегистрированный пользователь.
Мы рекомендуем Вам зарегистрироваться либо войти на сайт под своим именем.
Всего комментариев: 0
Информация
Посетители, находящиеся в группе Гости, не могут оставлять комментарии к данной публикации.