×
Реклама
Присоединяйся
ТОП Пользователей
Реклама видна только незарегистрированным пользователям. Зарегистрироваться.
Уличные танцы 3: Все звезды / All Stars (2013) BDRip 1080p | 3D-Video | halfOU
4-12-2013, 19:20
Bender 0 840
Уличные танцы 3: Все звезды / All Stars (2013) BDRip 1080p | 3D-Video | halfOU
Год выпуска: 2013
Страна: Великобритания (Vertigo Films, Square One)
Жанр: Музыкальный, Комедия, Семейный
Продолжительность: 01:42:49

Перевод: Профессиональный (дублированный)

Режиссер: Бен Грегор / Ben Gregor

Роли исполняли (дублировали): Тео Стивенсон (Ethan), Акай Осей-Мэнсфилд (Jaden), Флер Хаудейк (Amy) (Лиза Мартиросова), Доминик Герман-Дэй (Tim), Амелия Кларксон (Rebecca), Гамал Тосифа (Brian), Эшли Дженсен (Gina), Хью Дэннис (Mr. Hart), Кевин Бишоп (Andy), Эшли Уолтерс (Mark), Кимберли Уолш (Trish), Киран Лаи (Kurt) (Александр Дасевич)...

Описание: Герой фильма, энергичный и бойкий Этан, объединяется со скромным профессиональным стритдансером Джейденом для участия в очередном чемпионате по уличным танцам. Только своей победой ребята смогут спасти свой молодежный клуб от закрытия. И они сделают это, во что бы то ни стало…


Премьера: 3 мая 2013 (6 июня 2013)
Релиз на Blu-Ray (DVD): 17 сентября 2013


Качество: BDRip (by Ash61)
Контейнер: MKV
Формат 3D: Half OverUnder / Вертикальная анаморфная стереопара
Порядок ракурсов: левый ракурс первый
Видео кодек: x264
Аудио кодек: AC3


Видео: AVC / 23,976 fps / 1920х1080p / 18.8 Mbps

Аудио:
#1 - Русский / AC3 / 48 KHz / 5.1 ch / 640 Kbps (Дубляж - BD 3D Rus)
#2 - Английский / AC3 / 48 KHz / 5.1 ch / 640 Kbps (Original)

Субтитры: Отсутствуют

MediaInfo
General
Unique ID : 188156272501063648495667710609791244003 (0x8D8D94772BD439ADBDCDC9E7E3B9D6E3)
Complete name : E:DownloadsAllStars(2013)3D-halfOU(Ash61).mkv
Format : Matroska
Format version : Version 2
File size : 14.7 GiB
Duration : 1h 42mn
Overall bit rate : 20.5 Mbps
Movie name : Уличные танцы 3: Все звезды / All Stars (2013) 3D
Encoded date : UTC 2013-09-25 14:43:57
Writing application : mkvmerge v5.8.0 ('No Sleep / Pillow') built on Sep 2 2012 15:37:04
Writing library : libebml v1.2.3 + libmatroska v1.3.0

Video
ID : 1
Format : AVC
Format/Info : Advanced Video Codec
Format profile : High@L4.1
Format settings, CABAC : Yes
Format settings, ReFrames : 4 frames
Codec ID : V_MPEG4/ISO/AVC
Duration : 1h 42mn
Bit rate : 18.8 Mbps
Width : 1 920 pixels
Height : 1 080 pixels
Display aspect ratio : 16:9
Frame rate mode : Constant
Frame rate : 23.976 fps
Color space : YUV
Chroma subsampling : 4:2:0
Bit depth : 8 bits
Scan type : Progressive
Bits/(Pixel*Frame) : 0.378
Stream size : 13.5 GiB (92%)
Title : BDRip by Ash61
Writing library : x264 core 129 r2245 bc13772
Encoding settings : cabac=1 / ref=4 / deblock=1:-3:-3 / analyse=0x3:0x113 / me=umh / subme=10 / psy=1 / psy_rd=1.00:0.15 / mixed_ref=1 / me_range=32 / chroma_me=1 / trellis=2 / 8x8dct=1 / cqm=0 / deadzone=21,11 / fast_pskip=1 / chroma_qp_offset=-3 / threads=12 / lookahead_threads=2 / sliced_threads=0 / nr=0 / decimate=1 / interlaced=0 / bluray_compat=0 / constrained_intra=0 / bframes=9 / b_pyramid=2 / b_adapt=2 / b_bias=0 / direct=3 / weightb=1 / open_gop=0 / weightp=2 / keyint=250 / keyint_min=23 / scenecut=40 / intra_refresh=0 / rc_lookahead=60 / rc=crf / mbtree=1 / crf=16.5 / qcomp=0.70 / qpmin=0 / qpmax=69 / qpstep=4 / vbv_maxrate=40000 / vbv_bufsize=30000 / crf_max=0.0 / nal_hrd=none / frame-packing=4 / ip_ratio=1.40 / aq=1:0.70
Language : English
Default : Yes
Forced : No

Audio #1
ID : 2
Format : AC-3
Format/Info : Audio Coding 3
Mode extension : CM (complete main)
Format settings, Endianness : Big
Codec ID : A_AC3
Duration : 1h 42mn
Bit rate mode : Constant
Bit rate : 640 Kbps
Channel(s) : 6 channels
Channel positions : Front: L C R, Side: L R, LFE
Sampling rate : 48.0 KHz
Bit depth : 16 bits
Compression mode : Lossy
Stream size : 471 MiB (3%)
Title : Дубляж - BD 3D Rus
Language : Russian
Default : Yes
Forced : No

Audio #2
ID : 3
Format : AC-3
Format/Info : Audio Coding 3
Mode extension : CM (complete main)
Format settings, Endianness : Big
Codec ID : A_AC3
Duration : 1h 42mn
Bit rate mode : Constant
Bit rate : 640 Kbps
Channel(s) : 6 channels
Channel positions : Front: L C R, Side: L R, LFE
Sampling rate : 48.0 KHz
Bit depth : 16 bits
Compression mode : Lossy
Stream size : 471 MiB (3%)
Title : Original
Language : English
Default : No
Forced : No

    



Рейтинг: 3/5 | Оценок: 1
ПОДЕЛИТЬСЯ
Реклама
Реклама
Рекомендуем к прочтению
Информация:
Уважаемый посетитель, Вы зашли на сайт как незарегистрированный пользователь.
Мы рекомендуем Вам зарегистрироваться либо войти на сайт под своим именем.
Всего комментариев: 0
Информация
Посетители, находящиеся в группе Гости, не могут оставлять комментарии к данной публикации.