×
Реклама
Присоединяйся
ТОП Пользователей
Реклама видна только незарегистрированным пользователям. Зарегистрироваться.
Щенок / Puppy (2013) BDRip 1080p | 3D-Video | halfOU | Короткометражка
4-12-2013, 19:11
Bender 0 2 194
Щенок / Puppy (2013) BDRip 1080p | 3D-Video | halfOU | Короткометражка
Год выпуска: 2013
Страна: США (Universal Studios)
Жанр: Мультфильм, Короткометражка, Комедия, Семейный

Продолжительность: 00:04:33

Перевод: Не требуется

Режиссеры: Yarrow Cheney (художник Гадкий я; Гадкий я 2 и Лоракс), Bruno Dequier

Роли озвучивали: Dave - Pierre Coffin

Описание: Короткая история о контакте миньона Дэйва (Гадкий Я) с представителем внеземной цивилизации...

Доп. информация: Доп с BD 3D Гадкий я 2.
За исходный BD3D-ремукс спасибо S.V.O.!

Качество: BDRip (by Ash61)
Контейнер: MKV
Формат 3D: Half OverUnder / Вертикальная анаморфная стереопара
Порядок ракурсов: левый ракурс первый
Видео кодек: x264
Аудио кодек: AC3


Видео: AVC / 23,976 fps / 1920х1080p / ~5.6 Mbps
Аудио: AC3 / 48 KHz / 5.1 ch / 384 Kbps (Original)
Субтитры: Отсутствуют

MediaInfo
General
Unique ID : 175122997684415722273275234916109309138 (0x83BF7667A74D71B99ACF4A492C5ED4D2)
Complete name : E:Puppy(2013)3D-halfOU(Ash61).mkv
Format : Matroska
Format version : Version 2
File size : 200 MiB
Duration : 4mn 33s
Overall bit rate : 6 143 Kbps
Movie name : Puppy (2013) 3D
Encoded date : UTC 2013-10-27 18:38:53
Writing application : mkvmerge v5.8.0 ('No Sleep / Pillow') built on Sep 2 2012 15:37:04
Writing library : libebml v1.2.3 + libmatroska v1.3.0

Video
ID : 1
Format : AVC
Format/Info : Advanced Video Codec
Format profile : High@L4.1
Format settings, CABAC : Yes
Format settings, ReFrames : 4 frames
Codec ID : V_MPEG4/ISO/AVC
Duration : 4mn 33s
Bit rate : 5 637 Kbps
Width : 1 920 pixels
Height : 1 080 pixels
Display aspect ratio : 16:9
Frame rate mode : Constant
Frame rate : 23.976 fps
Color space : YUV
Chroma subsampling : 4:2:0
Bit depth : 8 bits
Scan type : Progressive
Bits/(Pixel*Frame) : 0.113
Stream size : 184 MiB (92%)
Title : BDRip by Ash61
Writing library : x264 core 129 r2245 bc13772
Encoding settings : cabac=1 / ref=4 / deblock=1:-3:-3 / analyse=0x3:0x113 / me=umh / subme=10 / psy=1 / psy_rd=1.00:0.15 / mixed_ref=1 / me_range=32 / chroma_me=1 / trellis=2 / 8x8dct=1 / cqm=0 / deadzone=21,11 / fast_pskip=1 / chroma_qp_offset=-3 / threads=12 / lookahead_threads=2 / sliced_threads=0 / nr=0 / decimate=1 / interlaced=0 / bluray_compat=0 / constrained_intra=0 / bframes=9 / b_pyramid=2 / b_adapt=2 / b_bias=0 / direct=3 / weightb=1 / open_gop=0 / weightp=2 / keyint=250 / keyint_min=23 / scenecut=40 / intra_refresh=0 / rc_lookahead=60 / rc=crf / mbtree=1 / crf=17.0 / qcomp=0.70 / qpmin=0 / qpmax=69 / qpstep=4 / vbv_maxrate=40000 / vbv_bufsize=30000 / crf_max=0.0 / nal_hrd=none / frame-packing=4 / ip_ratio=1.40 / aq=1:0.70
Language : English
Default : Yes
Forced : No

Audio
ID : 2
Format : AC-3
Format/Info : Audio Coding 3
Mode extension : CM (complete main)
Format settings, Endianness : Big
Codec ID : A_AC3
Duration : 4mn 33s
Bit rate mode : Constant
Bit rate : 384 Kbps
Channel(s) : 6 channels
Channel positions : Front: L C R, Side: L R, LFE
Sampling rate : 48.0 KHz
Bit depth : 16 bits
Compression mode : Lossy
Stream size : 12.5 MiB (6%)
Title : Original
Language : English
Default : Yes
Forced : No

   


Рейтинг: 4/5 | Оценок: 4
ПОДЕЛИТЬСЯ
Реклама
Реклама
Рекомендуем к прочтению
Информация:
Уважаемый посетитель, Вы зашли на сайт как незарегистрированный пользователь.
Мы рекомендуем Вам зарегистрироваться либо войти на сайт под своим именем.
Всего комментариев: 0
Информация
Посетители, находящиеся в группе Гости, не могут оставлять комментарии к данной публикации.