×
Реклама
Присоединяйся
ТОП Пользователей
Реклама видна только незарегистрированным пользователям. Зарегистрироваться.
Эпик / Epic (2013) BDRip 1080p | 3D-Video | halfOU | Лицензия
4-12-2013, 19:11
Bender 1 3 793
Эпик / Epic (2013) BDRip 1080p | 3D-Video | halfOU | Лицензия
Год выпуска: 2013
Страна: США (20th Century Fox, Blue Sky Studios)
Жанр: Мультфильм, Фэнтези, Приключения, Семейный
Продолжительность: 01:42:29
Перевод: Профессиональные дублированные Русский и Украинский

Режиссер: Крис Уэдж / Chris Wedge



Роли озвучивали (дублировали):


Mary Katherine (M.K.) - Аманда Сайфред (Юлия Савичева)
Nod - Джош Хатчерсон (Пётр Иващенко)
Ronin - Колин Фаррелл (Илья Исаев)
Bomba - Джейсон Судейкис
Mub - Азиз Ансари
Grub - Крис О’Дауд
Mandrake - Кристоф Вальц (Никита Прозоровский)
Nim Galuu - Стивен Тайлер
Queen Tara - Бейонсе Ноулз
Dagda - Блейк Андерсон (Диомид Виноградов)
Bufo - Pitbull

Описание: После долгой разлуки юная Мэри Кэтрин возвращается в дом, где отшельником живет ее отец, безумный профессор Бомба. Однако тот совсем не обращает внимания на дочь и одержим лишь одной идеей — изучить скрытый от посторонних глаз таинственный лесной мир. Девушка отказывается верить, что под ногами человечества идет вечная борьба между армиями, воюющими на сторонах добра и зла. Чудесным образом Мэри Кэтрин уменьшается в размерах и знакомится с маленькими воинами. Теперь от нее зависит спасение не только волшебного лесного, но и реального человеческого мира…

Знаете ли вы, что... :
Первый фильм Blue Sky Studios, в котором главным героем является девушка. Для студии Twentieth Century Fox это первый после «Анастасии» (1997) кинотеатральный анимационный фильм с девушкой в качестве главной героини.
Второй фильм Blue Sky Studios после фильма «Ледниковый период» (2002), где композитором не стал Джон Пауэлл.
Когда Мэри Кэтрин и ее отец воссоединяются в лесу, его глаза синие, в то время как в любых других сценах они зеленые.


Премьера: 16 мая 2013 (30 мая 2013)
Релиз на DVD и Blu-Ray: 12 сентября 2013
Бюджет: $100 000 000
Кассовые сборы: $252 554 525


Качество: BDRip (by Ash61)
Контейнер: MKV
Формат 3D: Half OverUnder / Вертикальная анаморфная стереопара
Порядок ракурсов: левый ракурс первый
Видео кодек: x264
Аудио кодек: AC3


Видео: AVC / 23,976 fps / 1920х1080p / 7228 Kbps

Аудио:
#1 - Русский / AC3 / 48 KHz / 5.1 ch / 640 Kbps (Дубляж - BD EUR)
#2 - Украинский / AC3 / 48 KHz / 5.1 ch / 448 Kbps (Дубляж - BD EUR)
#3 - Английский / AC3 / 48 KHz / 5.1 ch / 640 Kbps (Original)

Субтитры (Внешние SRT UTF-8):
#1 - Русские Полные
#2 - Украинские Полные
#3 - English Full
#4 - English SDH
#5 - English SDH Colored

MediaInfo
General
Unique ID : 187533140721853506808967203271229385129 (0x8D1591B26167EC1C985A2A52681929A9)
Complete name : E:DownloadsEpic(2013)3D-halfOU(Ash61).mkv
Format : Matroska
Format version : Version 2
File size : 6.54 GiB
Duration : 1h 42mn
Overall bit rate : 9 138 Kbps
Movie name : Эпик / Epic (3D) 2013
Encoded date : UTC 2013-09-05 14:37:06
Writing application : mkvmerge v5.8.0 ('No Sleep / Pillow') built on Sep 2 2012 15:37:04
Writing library : libebml v1.2.3 + libmatroska v1.3.0

Video
ID : 1
Format : AVC
Format/Info : Advanced Video Codec
Format profile : High@L4.1
Format settings, CABAC : Yes
Format settings, ReFrames : 4 frames
Codec ID : V_MPEG4/ISO/AVC
Bit rate : 7 228 Kbps
Width : 1 920 pixels
Height : 1 080 pixels
Display aspect ratio : 16:9
Frame rate mode : Variable
Original frame rate : 23.976 fps
Color space : YUV
Chroma subsampling : 4:2:0
Bit depth : 8 bits
Scan type : Progressive
Title : BDRip by Ash61
Writing library : x264 core 129 r2245 bc13772
Encoding settings : cabac=1 / ref=4 / deblock=1:-3:-3 / analyse=0x3:0x113 / me=umh / subme=9 / psy=1 / psy_rd=1.00:0.15 / mixed_ref=1 / me_range=32 / chroma_me=1 / trellis=2 / 8x8dct=1 / cqm=0 / deadzone=21,11 / fast_pskip=1 / chroma_qp_offset=-3 / threads=12 / lookahead_threads=2 / sliced_threads=0 / nr=0 / decimate=1 / interlaced=0 / bluray_compat=0 / constrained_intra=0 / bframes=8 / b_pyramid=2 / b_adapt=2 / b_bias=0 / direct=3 / weightb=1 / open_gop=0 / weightp=2 / keyint=250 / keyint_min=23 / scenecut=40 / intra_refresh=0 / rc_lookahead=60 / rc=crf / mbtree=1 / crf=17.5 / qcomp=0.70 / qpmin=0 / qpmax=69 / qpstep=4 / vbv_maxrate=40000 / vbv_bufsize=30000 / crf_max=0.0 / nal_hrd=none / frame-packing=4 / ip_ratio=1.40 / aq=1:0.70
Language : English
Default : Yes
Forced : No

Audio #1
ID : 2
Format : AC-3
Format/Info : Audio Coding 3
Mode extension : CM (complete main)
Format settings, Endianness : Big
Codec ID : A_AC3
Duration : 1h 42mn
Bit rate mode : Constant
Bit rate : 640 Kbps
Channel(s) : 6 channels
Channel positions : Front: L C R, Side: L R, LFE
Sampling rate : 48.0 KHz
Bit depth : 16 bits
Compression mode : Lossy
Stream size : 469 MiB (7%)
Title : Дубляж - BD EUR
Language : Russian
Default : Yes
Forced : No

Audio #2
ID : 3
Format : AC-3
Format/Info : Audio Coding 3
Mode extension : CM (complete main)
Format settings, Endianness : Big
Codec ID : A_AC3
Duration : 1h 42mn
Bit rate mode : Constant
Bit rate : 448 Kbps
Channel(s) : 6 channels
Channel positions : Front: L C R, Side: L R, LFE
Sampling rate : 48.0 KHz
Bit depth : 16 bits
Compression mode : Lossy
Stream size : 328 MiB (5%)
Title : Дубляж - BD EUR
Language : Ukrainian
Default : No
Forced : No

Audio #3
ID : 4
Format : AC-3
Format/Info : Audio Coding 3
Mode extension : CM (complete main)
Format settings, Endianness : Big
Codec ID : A_AC3
Duration : 1h 42mn
Bit rate mode : Constant
Bit rate : 640 Kbps
Channel(s) : 6 channels
Channel positions : Front: L C R, Side: L R, LFE
Sampling rate : 48.0 KHz
Bit depth : 16 bits
Compression mode : Lossy
Stream size : 469 MiB (7%)
Title : Original
Language : English
Default : No
Forced : No

Menu
00:00:00.000 : :1
00:04:48.205 : :2
00:09:49.589 : :3
00:13:05.535 : :4
00:16:50.051 : :5
00:20:36.193 : :6
00:24:09.490 : :7
00:28:17.237 : :8
00:31:31.848 : :9
00:34:06.586 : :10
00:38:21.591 : :11
00:43:17.428 : :12
00:44:58.029 : :13
00:47:04.739 : :14
00:49:07.945 : :15
00:52:40.699 : :16
00:56:28.885 : :17
00:59:52.214 : :18
01:03:27.387 : :19
01:07:48.940 : :20
01:14:36.472 : :21
01:18:24.950 : :22
01:20:13.100 : :23
01:24:03.038 : :24
01:25:19.281 : :25
01:27:34.040 : :26
01:32:05.520 : :27
01:34:12.480 : :28

       


Рейтинг: 4.3/5 | Оценок: 3
ПОДЕЛИТЬСЯ
Реклама
Реклама
Рекомендуем к прочтению
Информация:
Уважаемый посетитель, Вы зашли на сайт как незарегистрированный пользователь.
Мы рекомендуем Вам зарегистрироваться либо войти на сайт под своим именем.
Всего комментариев: 1
akim написал(а) 5 декабря 2013 06:08
спасибо  ;)
Информация
Посетители, находящиеся в группе Гости, не могут оставлять комментарии к данной публикации.