×
Реклама
Присоединяйся
ТОП Пользователей
Реклама видна только незарегистрированным пользователям. Зарегистрироваться.
Шоу Уральских пельменей (2009-2013) WEB-DL
19-10-2013, 10:02
Alexey 1 1 322
Шоу Уральских пельменей (2009-2013) WEB-DL
Информация о фильме
Название: Шоу "Уральских пельменей"
Год выхода: 2009-13
Жанр: Комедия
Режиссер: Константин Куц, Леонид Коновалов, Анастасия Гуделова
В ролях: Сергей Ершов, Андрей Рожков, Сергей Нетиевский, Дмитрий Соколов, Вячеслав Мясников, Сергей Исаев, Юлия Михалкова-Матюхина, Дмитрий Брекоткин, Александр Попов, Максим Ярица

О фильме:
Прошедшей долгий путь от основания в 1993 году, дебюта в Высшей лиге «Клуба Веселых и Находчивых» в 1995, чемпионства в ней же в 2000 и до старта собственных юмористических спектаклей на телевидении в 2009 году. Сергей Нетиевский, Андрей Рожков, Дмитрий Соколов, Дмитрий Брекоткин, Вячеслав Мясников, Сергей Исаев – эти имена давно и прочно ассоциируются с добротным, не пошлым и не злым, но неизменно актуальным, пробивающим до слез юмором. Зритель начинает получать положительный заряд эмоций уже от игры слов в названиях их тематических телевизионных выступлений: «Вялые паруса», «Борода измята», «Снега и зрелищ», «Падал прошлогодний смех», «Назад в булочную», «Гори оно все… конем!» и многие другие творения, с лету уходящие «в народ».

Официальный сайт

Страна: Россия
Продолжительность: ~ 60 мин выпуск

Файл
Кодек: WebM
Качество: WEB-DL (360, 480, 720)
Видео: ~ VP80 1280x720 30fps
Звук: ~Vorbis 44100Hz stereoв

Семпл

Разрешение видео у каждого файла может быть разным. Качество выбиралось наилучшее из возможного.

Список выпусков

Агенты 07 ﴾полная версия﴿
Борода измята, ч.1, 2011
Борода измята, ч.2, 2011
В гостях у скалки, 2010
Весь апрель никому, 2010
Вялые паруса + 1 вырезанная сцена
Вялые паруса, ч.1, 2012
Вялые паруса, ч.2, 2012
Год в сапогах, 2012
Гори оно все конем, 2009
День смешного Валентина, 2011
Женское ‐ Щас я! ﴾полная версия, ч.1﴿
Женское ‐ Щас я! ﴾полная версия, ч.2﴿
Зе BAD, 2012
Зе BAD‐2 ﴾Вырезанное﴿
Зе Bad‐2, часть 2
Из грязи в стразы, 2011
Как я провел ЭТО, 2010
Красота спасет мымр, 2012
Май на! ﴾часть 1﴿
Май на! ﴾часть 2﴿
Мужхитеры, ч.1 ﴾полная версия﴿
Мужхитеры, часть 2 ﴾полная версия﴿
На старт, внимание, март! 2011
Назад в булошную, ч.1, 2012
Назад в булошную, ч.2, 2012
Наноконцерт, 2011
Не вешать хвост, ветеринары
От томата до заката, 2011
Отцы и эти, 2011
Падал прошлогодний смех, 2010
Пинг‐понг жив, 2011
По уши в ЕГЭ, 2010
Смешняги, 2009 15. 
Снега и зрелищ ‐ ч.1, 2012
Снега и зрелищ, ч.2, 2012
Снегодяи, ч.1, 2012
Снегодяи, ч.2, 2012
Союзы‐Аполлоны, 2011
Тень знаний ‐ ч.1, 2012
Тень знаний ‐ ч.2. 2012
Ура! Стипенсия! 2010
Худеем в тесте, часть 2
Худеем в тесте
Шагом фарш! 2010

MediaInfo
Format : WebM
Format version : Version 2
File size : 586 MiB
Duration : 1h 11mn
Overall bit rate mode : Variable
Overall bit rate : 1 143 Kbps

Video
ID : 1
Format : VP8
Codec ID : V_VP8
Duration : 1h 11mn
Bit rate : 961 Kbps
Width : 640 pixels
Height : 480 pixels
Display aspect ratio : 4:3
Frame rate mode : Constant
Frame rate : 25.000 fps
Compression mode : Lossy
Bits/(Pixel*Frame) : 0.125
Stream size : 493 MiB (84%)
Language : English
Default : Yes
Forced : No

Audio
ID : 2
Format : Vorbis
Format settings, Floor : 1
Codec ID : A_VORBIS
Duration : 1h 11mn
Bit rate mode : Variable
Bit rate : 128 Kbps
Channel(s) : 2 channels
Sampling rate : 44.1 KHz
Compression mode : Lossy
Stream size : 65.6 MiB (11%)
Default : Yes
Forced : No

    


Рейтинг: 3/5 | Оценок: 1
ПОДЕЛИТЬСЯ
Реклама
Реклама
Рекомендуем к прочтению
Информация:
Уважаемый посетитель, Вы зашли на сайт как незарегистрированный пользователь.
Мы рекомендуем Вам зарегистрироваться либо войти на сайт под своим именем.
Всего комментариев: 1
V-I-R-U-S написал(а) 19 октября 2013 14:43
lol
Информация
Посетители, находящиеся в группе Гости, не могут оставлять комментарии к данной публикации.