×
Реклама
Присоединяйся
ТОП Пользователей
Реклама видна только незарегистрированным пользователям. Зарегистрироваться.
Валерий Курицын - Обучающий видеокурс Vegas Pro c нуля (2013) WEBRip
5-10-2013, 07:56
Alexey 0 1 058
Валерий Курицын - Обучающий видеокурс Vegas Pro c нуля (2013) WEBRip
Автор (режиссер): Валерий Курицын
Название: Vegas Pro c нуля
Год выпуска: 2013
Жанр: Обучающие видеокурсы
Продолжительность: 00:18:03

Описание:
Если вы хотите обучиться азам работы в программе Vegas Pro, то данный мини-курс точно для вас!

«Эта программа позволяет профессионально редактировать и монтировать видео и аудио потоки. Возможность создания бесконечного количества видео и аудио дорожек, а также наличие продвинутых инструментов для их обработки, предоставляют практически неограниченные возможности. Сони Вегас Про позволяет работать сразу с несколькими процессорами и мониторами, а также поддерживает большое количество других современных функций. Готовые материалы можно экспортировать почти во все популярные форматы: AVI, Quick Time, MPEG-1, MPEG-2, Windows Media Video, SWF и другие.» © VideoSmile


Качество видео: PCRec
Видеокодек: AVC
Битрейт видео: ~29.97fps 1403kbps
Размер кадра: 1280x720
Аудиокодек: AAC
Битрейт аудио: 44100Hz stereo 107kbps

Содержание курса:

Знакомство с программой.
Экскурсия по программе.
Импорт видео в программу и основные инструменты.
Ускорение и замедление видео.
Эффекты- Video FX.
Transitions — Переходы.
Практический урок.
Вывод файла.
Дополнительные материалы.

MediaInfo:

Общее
Полное имя : D:АндрейMini-kurs Vegas Pro
Формат : MPEG-4
Профиль формата : Base Media
Идентификатор кодека : isom
Размер файла : 12,0 Мбайт
Режим общего битрейта : Переменный
Общий поток : 1509 Кбит/сек
Дата кодирования : UTC 2013-09-08 12:15:56
Дата пометки : UTC 2013-09-08 12:15:56
Программа кодирования : FormatFactory : www.pcfreetime.com

Видео
Идентификатор : 1
Формат : AVC
Формат/Информация : Advanced Video Codec
Профиль формата : High@L3.0
Параметр CABAC формата : Нет
Параметр ReFrames формата : 1 кадр
Идентификатор кодека : avc1
Идентификатор кодека/Информация : Advanced Video Coding
Битрейт : 1403 Кбит/сек
Номинальный битрейт : 1600 Кбит/сек
Максимальный битрейт : 5208 Кбит/сек
Ширина : 1280 пикселей
Высота : 720 пикселей
Соотношение сторон : 16:9
Режим частоты кадров : Постоянный
Частота кадров : 29,970 кадров/сек
Цветовое пространство : YUV
Субдискретизация насыщенности : 4:2:0
Битовая глубина : 8 бит
Тип развёртки : Прогрессивная
Бит/(Пиксели*Кадры) : 0.051
Размер потока : 11,2 Мбайт (93%)
Библиотека кодирования : x264 core 116 r2019 9cc407d
Настройки программы : cabac=0 / ref=1 / deblock=1:0:0 / analyse=0x3:0x113 / me=hex / subme=7 / psy=1 / psy_rd=1.00:0.00 / mixed_ref=0 / me_range=16 / chroma_me=1 / trellis=1 / 8x8dct=1 / cqm=0 / deadzone=21,11 / fast_pskip=1 / chroma_qp_offset=-2 / threads=12 / sliced_threads=0 / nr=0 / decimate=1 / interlaced=0 / bluray_compat=0 / constrained_intra=0 / bframes=0 / weightp=2 / keyint=250 / keyint_min=25 / scenecut=40 / intra_refresh=0 / rc_lookahead=40 / rc=abr / mbtree=1 / bitrate=1600 / ratetol=1.0 / qcomp=0.60 / qpmin=0 / qpmax=69 / qpstep=4 / ip_ratio=1.40 / aq=1:1.00
Дата кодирования : UTC 2013-09-08 12:15:56
Дата пометки : UTC 2013-09-08 12:15:56

Аудио
Идентификатор : 2
Формат : AAC
Формат/Информация : Advanced Audio Codec
Профиль формата : LC
Идентификатор кодека : 40
Вид битрейта : Переменный
Битрейт : 107 Кбит/сек
Максимальный битрейт : 145 Кбит/сек
Каналы : 2 канала
Расположение каналов : Front: L R
Частота : 44,1 КГц
Метод сжатия : С потерями
Размер потока : 877 Кбайт (7%)
Дата кодирования : UTC 2013-09-08 12:15:56
Дата пометки : UTC 2013-09-08 12:15:56

    


Рейтинг: 4.6/5 | Оценок: 5
ПОДЕЛИТЬСЯ
Реклама
Реклама
Рекомендуем к прочтению
Информация:
Уважаемый посетитель, Вы зашли на сайт как незарегистрированный пользователь.
Мы рекомендуем Вам зарегистрироваться либо войти на сайт под своим именем.
Всего комментариев: 0
Информация
Посетители, находящиеся в группе Гости, не могут оставлять комментарии к данной публикации.