×
Реклама
Присоединяйся
ТОП Пользователей
Реклама видна только незарегистрированным пользователям. Зарегистрироваться.
6 Кадров [142 выпуска] (2006) WEB-DL
22-09-2013, 06:43
Alexey 0 753
6 Кадров [142 выпуска] (2006) WEB-DL
Информация о фильме
Название: 6 Кадров
Год выхода: 2006
Жанр: Комедия
Режиссер: Александр Жигалкин
В ролях: Александр Ломакин, Федор Добронравов, Эдуард Радзюкевич, Сергей Дорогов, Андрей Кайков, Галина Данилова, Ирина Медведева, Александр Жигалкин, Михаил Казаков, Дмитрий Аросьев

О фильме:
6 кадров» - первое российское телевизионное скетч-шоу, состоящее из коротких юмористических зарисовок с малым количеством персонажей, обыгрывающих ситуации из повседневной жизни. Каждый выпуск включает в себя множество коротких комедийных сюжетов, ситуации и герои которых никогда не повторяются.
Действие скетчей происходит в обыденных местах, где может оказаться каждый из нас: рестораны и кинотеатры, транспорт и городские квартиры, офисы и магазины, и т.д. и т.п. Темы для зарисовок поражают своим разнообразием: здесь и любовь, и секс, и взаимоотношения в семье, и неожиданные встречи. Юмор здесь всегда построен на непредсказуемости ситуации и поведения героев.
Героями миниатюр становятся обычные люди: мужья и жены, любовники и коллеги, родственники, чиновники и многие другие. Но, несмотря на обилие образов, главными действующими лицами остаются шесть основных актеров, своим количеством давшие название передаче.

Страна: Россия
Продолжительность: 25 мин серия
Перевод: Оригинал

Кодек: MPEG4
Качество: WEB-DL
Видео: 704x396 25fps 1031kbps
Звук: AAC 44100Hz stereo 127kbps

MediaInfo

Format : MPEG-4
Format profile : Base Media
Codec ID : isom
File size : 195 MiB
Duration : 23mn 28s
Overall bit rate mode : Variable
Overall bit rate : 1 164 Kbps
Writing application : Lavf52.31.0

Video
ID : 1
Format : AVC
Format/Info : Advanced Video Codec
Format profile : Main@L3.0
Format settings, CABAC : Yes
Format settings, ReFrames : 3 frames
Codec ID : avc1
Codec ID/Info : Advanced Video Coding
Duration : 23mn 28s
Bit rate : 1 032 Kbps
Width : 704 pixels
Height : 396 pixels
Display aspect ratio : 16:9
Frame rate mode : Constant
Frame rate : 25.000 fps
Color space : YUV
Chroma subsampling : 4:2:0
Bit depth : 8 bits
Scan type : Progressive
Bits/(Pixel*Frame) : 0.148
Stream size : 173 MiB (89%)
Language : Russian
Tagged date : UTC 2011-10-27 16:46:58

Audio
ID : 2
Format : AAC
Format/Info : Advanced Audio Codec
Format profile : LC
Codec ID : 40
Duration : 23mn 27s
Bit rate mode : Variable
Bit rate : 128 Kbps
Channel(s) : 2 channels
Channel positions : Front: L R
Sampling rate : 44.1 KHz
Compression mode : Lossy
Delay relative to video : 80ms
Stream size : 21.5 MiB (11%)
Language : Russian

  

 


Рейтинг: 4.3/5 | Оценок: 3
ПОДЕЛИТЬСЯ
Реклама
Реклама
Рекомендуем к прочтению
Информация:
Уважаемый посетитель, Вы зашли на сайт как незарегистрированный пользователь.
Мы рекомендуем Вам зарегистрироваться либо войти на сайт под своим именем.
Всего комментариев: 0
Информация
Посетители, находящиеся в группе Гости, не могут оставлять комментарии к данной публикации.