×
Реклама
Присоединяйся
ТОП Пользователей
Реклама видна только незарегистрированным пользователям. Зарегистрироваться.
Артем Лукьянов, Марсель Фатхутдинов - Обучающий видеокурс Cупер After Effects. Полный комплект (2013) PCRec
10-09-2013, 12:51
Alexey 1 9 262
Артем Лукьянов, Марсель Фатхутдинов - Обучающий видеокурс Cупер After Effects. Полный комплект (2013) PCRec
Авторы: Артем Лукьянов, Марсель Фатхутдинов 
Название: Супер After Effects. Полный комплект 
Год выпуска: 2013 
Жанр: Обучающие видеокурсы 
Продолжительность: 124 урока 

Описание: 
Первый полноценный обучающий видеокурс по After Effects на русском языке. 
Этот видеокурс создавался практиками и для практиков. Мы сами когда-то начинали с нуля и до сих пор помним то ощущение беспомощности, когда не знаешь, как создать какие-то элементарные вещи, а помощи искать негде. Наша цель — сэкономить ваше время и сделать так, чтобы вы изучили After Effects максимально быстро и смогли уже через месяц создавать такие видеоэффекты, от которых ваша публика будет в диком восторге! Не важно, являетесь ли вы видеографом, хотите стать профессиональным моушн-дизайнером или просто желаете научиться создавать классные видеоролики — этот курс мы разработали именно для вас!
 

Качество видео: PCRec 
Язык: русский 
Видеокодек: avi 
Битрейт видео: ~276 Kbps 
Размер кадра: 1280x720 
Аудиокодек: AAC 
Битрейт аудио: 192 Kbps 

Содержание курса:

1. Курс «Супер After Effects» на 2-х DVD 
2. Курс «Выражения в After Effects» 
3. Курс «Mocha AE» 
4. Бонусные видео: 
- «Основы теории видео» 
- «Выбор компьютера» 
- «Основные принципы анимации» 
- «Повышение производительности» 
- «Шаблоны для цветокоррекции» 
- «Как создать живые фотографии» 
5. Все дополнительные материалы 

MediaInfo:

General 
Format: AVI 
Format/Info: Audio Video Interleave 
Overall bit rate: 481 Kbps 
Writing application: Lavf54.59.106 

Video 
Format: MPEG-4 Visual 
Codec ID: MP42 
Codec ID/Info: Microsoft MPEG-4 v2 (pre-standard) 
Codec ID/Hint: Microsoft 
Bit rate: 276 Kbps 
Width: 1 280 pixels 
Height: 720 pixels 
Display aspect ratio: 16:9 
Frame rate: 30.000 fps 
Compression mode: Lossy 
Bits/(Pixel*Frame): 0.010 
Stream size: 9.69 MiB (57%) 

Audio 
Format: MPEG Audio 
Format version: Version 1 
Format profile: Layer 3 
Mode: Joint stereo 
Mode extension: MS Stereo 
Codec ID/Hint: MP3 
Bit rate mode: Constant 
Bit rate: 192 Kbps 
Channel(s): 2 channels 
Sampling rate: 44.1 KHz 
Compression mode: Lossy 
Stream size: 6.75 MiB (40%) 
Alignment: Aligned on interleaves 
Interleave, duration: 26 ms (0.78 video frame) 
Writing library: LAME3.98.4 

   


Рейтинг: 4.8/5 | Оценок: 32
ПОДЕЛИТЬСЯ
Реклама
Реклама
Рекомендуем к прочтению
Информация:
Уважаемый посетитель, Вы зашли на сайт как незарегистрированный пользователь.
Мы рекомендуем Вам зарегистрироваться либо войти на сайт под своим именем.
Всего комментариев: 1
Kolyanice написал(а) 3 декабря 2016 22:49
Спасибо давно искал
Информация
Посетители, находящиеся в группе Гости, не могут оставлять комментарии к данной публикации.