×
Реклама
Присоединяйся
ТОП Пользователей
Реклама видна только незарегистрированным пользователям. Зарегистрироваться.
Попов Евгений - Базовый курс по HTML. 33 видеоурока (2011) WEBRip
26-04-2013, 16:27
Alexey 1 3 356
Попов Евгений - Базовый курс по HTML. 33 видеоурока (2011) WEBRip
Год выпуска: 2011
Сайт производителя: http://www.1popov.ru/
Автор: Евгений Попов
Продолжительность: 4:01:07
Тип раздаваемого материала: Видеоурок
Язык: Русский

Описание: Бесплатный курс по HTML от Евгения Попова. Данный комплекс уроков по HTML взят из платного сборника, под названием "Все Технические Моменты Онлайн-Бизнеса в Видеоформате". Пройдя этот курс, новички научатся создавать каркасы сайтов, а опытные вспомнят забытое.

Качество: ScreenRip
Формат видео: AVI
Видео: Xvid, 1280x818, 300 kbps, 20 fps
Аудио: mp3, 64.0 Kbps, 44.1 Khz, 2 ch

Список уроков


01. Введение в HTML
02. Понятие тега
03. Параграфы и заголовки
04. Списки
05. Атрибуты
06. Изображения
07. Ссылки. Часть 1
08. Ссылки. Часть 2
09. Таблицы. Часть 1
10. Таблицы. Часть 2
11. Жирный и курсивный текст
12. Введение в формы
13. Текстовые поля форм
14. Радиокнопки
15. Чекбоксы
16. Элемент выбора в форме (селект)
17. Текстовая область
18. Создание кнопок
19. Декоративное объединение
20. Блокировка и "только чтение"
21. Обработчик
22. Локальный сервер
23. Отправка данных GET и POST
24. Функция отправки письма
25. Теги внешних объектов
26. Предварительное форматирование
27. Карта изображения
28. Метатеги
29. Комментарии
30. XHTML
31. Валидация документа
32. Теги DIV и SPAN
33. Заключительный

Отчет MediaInfo
General
Complete name : D:ВИДЕОУРОКИHTML. Базовый курс19. Объединение декоративное.avi
Format : AVI
Format/Info : Audio Video Interleave
File size : 8.47 MiB
Duration : 3mn 8s
Overall bit rate : 377 Kbps
Writing application : Lavf52.31.0
Writing library : VirtualDub build 33815/release

Video
ID : 0
Format : MPEG-4 Visual
Format profile : Simple@L3
Format settings, BVOP : No
Format settings, QPel : No
Format settings, GMC : No warppoints
Format settings, Matrix : Default (H.263)
Codec ID : XVID
Codec ID/Hint : XviD
Duration : 3mn 8s
Bit rate : 301 Kbps
Width : 1 280 pixels
Height : 818 pixels
Display aspect ratio : 1.565
Frame rate : 20.000 fps
Color space : YUV
Chroma subsampling : 4:2:0
Bit depth : 8 bits
Scan type : Progressive
Compression mode : Lossy
Bits/(Pixel*Frame) : 0.014
Stream size : 6.76 MiB (80%)
Writing library : XviD 1.2.1 (UTC 2008-12-04)

Audio
ID : 1
Format : MPEG Audio
Format version : Version 1
Format profile : Layer 3
Mode : Joint stereo
Mode extension : MS Stereo
Codec ID : 55
Codec ID/Hint : MP3
Duration : 3mn 8s
Bit rate mode : Constant
Bit rate : 64.0 Kbps
Channel(s) : 2 channels
Sampling rate : 44.1 KHz
Compression mode : Lossy
Stream size : 1.44 MiB (17%)
Alignment : Aligned on interleaves
Interleave, duration : 26 ms (0.52 video frame)
Interleave, preload duration : 522 ms
Writing library : LAME3.98


    


Рейтинг: 4.4/5 | Оценок: 11
ПОДЕЛИТЬСЯ
Реклама
Реклама
Рекомендуем к прочтению
Информация:
Уважаемый посетитель, Вы зашли на сайт как незарегистрированный пользователь.
Мы рекомендуем Вам зарегистрироваться либо войти на сайт под своим именем.
Всего комментариев: 1
Rig927 написал(а) 30 июня 2015 19:01
Курсы от Евгения Попова хороши. Спасибо за раздачу. + в репу
Информация
Посетители, находящиеся в группе Гости, не могут оставлять комментарии к данной публикации.