×
Реклама
Присоединяйся
ТОП Пользователей
Реклама видна только незарегистрированным пользователям. Зарегистрироваться.
Разборки в маленьком Токио / Showdown in Little Tokyo (1991) DVDRip
26-03-2013, 09:25
Alexey 0 2 523
Разборки в маленьком Токио / Showdown in Little Tokyo (1991) DVDRip
Разборки в маленьком Токио / Showdown in Little Tokyo [1991, США, боевик, комедия, драма, криминал, DVDRip]

Страна: США
Жанр: боевик, комедия, драма, криминал
Год выпуска: 1991
Продолжительность: 1:15:25

Перевод: Профессиональный (дублированный)
Перевод: Авторский (одноголосый закадровый) Гаврилов
Перевод: Авторский (одноголосый закадровый) Чадов
Cубтитры: русские , английские - отдельно
Оригинальная аудиодорожка: английский

Режиссер: Марк Л. Лестер / Mark L. Lester

В ролях: Дольф Лундгрен, Брэндон Ли, Кэри-Хироюки Тагава, Тиа Каррере, Тоширо Обата, Филип Тан, Родни Кагеяма, Эрни Лайвли, Рени Гриффин, Рейд Асато

Описание: Они — лос-анджелесские полицейские, которые перемежают удары с попаданием в газетные заголовки, во время Разборки в маленьком Токио. Герой Дольфа Лундгрена — мускулистый американский самурай, сведущий в восточных традициях. Герой Брэндона Ли — «деревенский увалень», которому предстоит немало драк. Им двоим придется круто на войне против японской наркомафии Лос-Анджелеса.

Доп. информация:

Автор рипа : chopper887

Качество видео: DVDRip(Исх. DVD5)
Формат видео: AVI

Видео: 720x400 (1.80:1), 25 fps, XviD build 50 ~1929 kbps avg, 0.27 bit/pixel
Аудио: 48 kHz, AC3 Dolby Digital, 2/0 (L,R) Surround Encoded ch, ~192 kbps Профессиональный (полное дублирование)
Аудио: 48 kHz, AC3 Dolby Digital, 2/0 (L,R) ch, ~192 kbps Авторский (одноголосый, закадровый) Гаврилов
Аудио: 48 kHz, AC3 Dolby Digital, 2/0 (L,R) ch, ~192 kbps Авторский (одноголосый, закадровый) Чадов
Аудио: 48 kHz, AC3 Dolby Digital, 2/0 (L,R) Surround Encoded ch, ~192 kbps Английский
Формат субтитров: softsub (SRT)

AviInfo

File: Razborka v Malen'kom Tokio.chopper887.avi
Filesize: 1490.44 Mb ( 1 562 843 136 bytes )
Play length: 01:16:56.000 (115400 frames)
Subtitles: eng, rus (SubRip format)
Video: 720x400 (1.80:1), 25 fps, XviD build 50 ~1929 kbps avg, 0.27 bit/pixel
Audio #1: 48 kHz, AC3 Dolby Digital, 2/0 (L,R) Surround Encoded ch, ~192 kbps
Audio #2: 48 kHz, AC3 Dolby Digital, 2/0 (L,R) ch, ~192 kbps
Audio #3: 48 kHz, AC3 Dolby Digital, 2/0 (L,R) ch, ~192 kbps
Audio #4: 48 kHz, AC3 Dolby Digital, 2/0 (L,R) Surround Encoded ch, ~192 kbps

MediaInfo

General
Complete name : J:Razborka v Malen'kom Tokio.chopper887Razborka v Malen'kom Tokio.chopper887.avi
Format : AVI
Format/Info : Audio Video Interleave
File size : 1.46 GiB
Duration : 1h 16mn
Overall bit rate : 2 709 Kbps
Writing application : VirtualDubMod 1.5.10.2 (build 2540/release)
Writing library : VirtualDubMod build 2540/release

Video
ID : 0
Format : MPEG-4 Visual
Format profile : AdvancedSimple@L5
Format settings, BVOP : Yes
Format settings, QPel : No
Format settings, GMC : No warppoints
Format settings, Matrix : Custom
Codec ID : XVID
Codec ID/Hint : XviD
Duration : 1h 16mn
Bit rate : 1 932 Kbps
Width : 720 pixels
Height : 400 pixels
Display aspect ratio : 16:9
Frame rate : 25.000 fps
Resolution : 24 bits
Colorimetry : 4:2:0
Scan type : Progressive
Bits/(Pixel*Frame) : 0.268
Stream size : 1.04 GiB (71%)
Writing library : XviD 1.2.1 (UTC 2008-12-04)

Audio #1
ID : 1
Format : AC-3
Format/Info : Audio Coding 3
Format profile : Dolby Digital
Codec ID : 2000
Duration : 1h 15mn
Bit rate mode : Constant
Bit rate : 192 Kbps
Channel(s) : 2 channels
Channel positions : L R
Sampling rate : 48.0 KHz
Stream size : 104 MiB (7%)
Alignment : Split accross interleaves
Interleave, duration : 41 ms (1.02 video frame)
Interleave, preload duration : 500 ms

Audio #2
ID : 2
Format : AC-3
Format/Info : Audio Coding 3
Codec ID : 2000
Duration : 1h 15mn
Bit rate mode : Constant
Bit rate : 192 Kbps
Channel(s) : 2 channels
Channel positions : L R
Sampling rate : 48.0 KHz
Stream size : 104 MiB (7%)
Alignment : Split accross interleaves
Interleave, duration : 41 ms (1.02 video frame)
Interleave, preload duration : 500 ms

Audio #3
ID : 3
Format : AC-3
Format/Info : Audio Coding 3
Codec ID : 2000
Duration : 1h 15mn
Bit rate mode : Constant
Bit rate : 192 Kbps
Channel(s) : 2 channels
Channel positions : L R
Sampling rate : 48.0 KHz
Stream size : 103 MiB (7%)
Alignment : Split accross interleaves
Interleave, duration : 41 ms (1.02 video frame)
Interleave, preload duration : 500 ms

Audio #4
ID : 4
Format : AC-3
Format/Info : Audio Coding 3
Format profile : Dolby Digital
Codec ID : 2000
Duration : 1h 15mn
Bit rate mode : Constant
Bit rate : 192 Kbps
Channel(s) : 2 channels
Channel positions : L R
Sampling rate : 48.0 KHz
Stream size : 104 MiB (7%)
Alignment : Split accross interleaves
Interleave, duration : 41 ms (1.02 video frame)
Interleave, preload duration : 500 ms



Рейтинг: 4.3/5 | Оценок: 3
ПОДЕЛИТЬСЯ
Реклама
Реклама
Рекомендуем к прочтению
Информация:
Уважаемый посетитель, Вы зашли на сайт как незарегистрированный пользователь.
Мы рекомендуем Вам зарегистрироваться либо войти на сайт под своим именем.
Всего комментариев: 0
Информация
Посетители, находящиеся в группе Гости, не могут оставлять комментарии к данной публикации.