×
Реклама
Присоединяйся
ТОП Пользователей
Реклама видна только незарегистрированным пользователям. Зарегистрироваться.
Сборник клипов - Philizz - Minimix Adventures (2013) HDTV 1080p
18-03-2013, 18:16
Alexey 0 2 208
Сборник клипов - Philizz - Minimix Adventures (2013) HDTV 1080p
ИНФОРМАЦИЯ О МЕГАМИКСЕ
Название: Minimix Adventures
Оригинальное название: DJ IC ft. Philizz - Minimix Adventures
Год выхода: март, 2013
Жанр: Pop, Club, Dance, Video-Megamix

О фильме:
Перед вами свежий минимикс от голландского ви-джея Philizz и DJ IC.
Выкручиваем на всю мощность колонки: смотрим и слушаем Minimix Adventures!

Трейлер: Посмотреть
Страна: Нидерланды
Продолжительность: 00:19:57
Перевод: Оригинал (не требуется)

Файл
Качество: MPEG-4 AVC Video, 11,1 Мбит/сек, 1920:1080, 16:9, 25.000 fps
Звук: AAC, 2ch, ~317 Кбит/сек, 48000Hz
Размер: 1.60 GB
Сэмпл: Скачать

Дополнительная информация:
Мегамикс - это видеосборник,составленный из небольших фрагментов клипов.
Видеомикс - довольно новое явление в современной музыкальной культуре,
насчитывает всего несколько лет,и все больше и больше приобретая популярность.
Разбивка по трекам отсутствует.
Видеомиксы: Заходим, смотрим и качаем

Скриншоты


трек-лист
Minimix Adventures

1. Will I Am feat. Britney Spears - Scream And Shout [Reidiculous Remix]
2. Basto – Stormchaser w/ Will I Am feat. Britney Spears - Scream And Shout (Acapella)
3. Chris Brown - Don't Wake Me Up (Diggz To Infinity and Beyond Bootleg)
4. Will.I.Am & Eva Simons - This Is Love
5. Sebastian Ingrosso & Tommy Trash vs REM - Reload vs Losing My Religion [Joe Maz Bootleg]
6. Daddy's Groove - Stellar (Martin Garrix Remix)
7. Fatman Scoop, Lumidee - Dance 2013 (Original 2013 Mix)
8. Icona Pop - I Love It (Sick Individuals Vs Lucky Date) (BeatBreaker Bootleg)
9. Lil Jon - Get Ready (BeatBreaker Edit)
10. Showtek & Justin Prime vs Trinidad James - All Gold Everything (DJ Smerk Mash Up)
11. French Montana Vs Showtek - Pop That Cannonball (Beatbreaker & Xmind Edit)
12. Showtek & Justin Prime - Cannonball (Carnage & Victor Niglio Festival Trap Remiix)
13. Deorro & Duvoh - Black (Aylen Remix)
14. Ester Dean - Bam Bam Bam!! (Harlem Shake Remix)

MediaInfo
Общее
Полное имя DJ IC ft Philizz - Minimix Adventures
Формат : MPEG-4
Профиль формата : Base Media / Version 2
Идентификатор кодека : mp42
Размер файла : 1,60 Гбайт
Продолжительность : 19 м.
Режим общего битрейта : Переменный
Общий поток : 11,4 Мбит/сек
Дата кодирования : UTC 2013-03-10 20:47:10
Дата пометки : UTC 2013-03-10 20:51:44
©TIM : 00:00:00:00
©TSC : 25
©TSZ : 1

Видео
Идентификатор : 1
Формат : AVC
Формат/Информация : Advanced Video Codec
Профиль формата : Main@L4.2
Параметр CABAC формата : Да
Параметр ReFrames формата : 3 кадра
Идентификатор кодека : avc1
Идентификатор кодека/Информация : Advanced Video Coding
Продолжительность : 19 м.
Битрейт : 11,1 Мбит/сек
Ширина : 1920 пикселей
Высота : 1080 пикселей
Соотношение сторон : 16:9
Режим частоты кадров : Постоянный
Частота кадров : 25,000 кадров/сек
Стандарт вещания : PAL
Цветовое пространство : YUV
Субдискретизация насыщенности : 4:2:0
Битовая глубина : 8 бит
Тип развёртки : Прогрессивная
Бит/(Пиксели*Кадры) : 0.214
Размер потока : 1,55 Гбайт (97%)
Язык : English
Дата кодирования : UTC 2013-03-10 20:47:10
Дата пометки : UTC 2013-03-10 20:47:10

Аудио
Идентификатор : 2
Формат : AAC
Формат/Информация : Advanced Audio Codec
Профиль формата : LC
Идентификатор кодека : 40
Продолжительность : 19 м.
Продолжительность оригинала : 19 м.
Вид битрейта : Переменный
Битрейт : 317 Кбит/сек
Максимальный битрейт : 422 Кбит/сек
Каналы : 2 канала
Расположение каналов : Front: L R
Частота : 48,0 КГц
Метод сжатия : С потерями
Размер потока : 45,3 Мбайт (3%)
Размер потока оригинала : 45,3 Мбайт (3%)
Язык : English
Дата кодирования : UTC 2013-03-10 20:47:10
Дата пометки : UTC 2013-03-10 20:47:10



Рейтинг: 3/5 | Оценок: 1
ПОДЕЛИТЬСЯ
Реклама
Реклама
Рекомендуем к прочтению
Информация:
Уважаемый посетитель, Вы зашли на сайт как незарегистрированный пользователь.
Мы рекомендуем Вам зарегистрироваться либо войти на сайт под своим именем.
Всего комментариев: 0
Информация
Посетители, находящиеся в группе Гости, не могут оставлять комментарии к данной публикации.