×
Реклама
Присоединяйся
ТОП Пользователей
Реклама видна только незарегистрированным пользователям. Зарегистрироваться.
Дельфин - Я буду жить (2000) DVDRip
27-02-2013, 08:30
Alexey 0 1 499
Дельфин - Я буду жить (2000) DVDRip
Название: Я буду жить 
Исполнитель: Dolphin | Дельфин 
Год выхода: 2000 год 
Жанр: Концерт, Rock, Alternative, Noise, RAP 
Продолжительность: 00:46:14 

Дополнительная информация:
Живой концерт, записанный в Московском Дворце Молодежи 28 января 2000 года. Альбом вышел на аудио-, CD- и видеоносителе. Причем существует подарочная и обычная версия альбома на CD. Подарочная отличается тем, что на ней записаны три добавочных трека: "Она", "Собачий бой" и "Последнее слово". Они на самом деле являются большим подарком, так как довершают логическую картину всего выступления. Солист группы: Андрей Вячеславович Лысиков.

MI
Полное имя : C:Users/Дельфин - Я буду жить.avi 
Формат : AVI 
Формат/Информация : Audio Video Interleave 
Размер файла : 753 Мбайт 
Продолжительность : 46 м. 
Общий поток : 2269 Кбит/сек 
Программа кодирования : Lavf53.18.0 

Видео 
Идентификатор : 0 
Формат : xvid 
Идентификатор кодека : xvid 
Продолжительность : 46 м. 
Битрейт : 2000 Кбит/сек 
Ширина : 720 пикселей 
Высота : 446 пикселей 
Соотношение сторон : 1,621 
Частота кадров : 25,000 кадров/сек 
Бит/(Пиксели*Кадры) : 0.249 
Размер потока : 664 Мбайт (88%) 

Аудио 
Идентификатор : 1 
Формат : MPEG Audio 
Версия формата : Version 1 
Профиль формата : Layer 3 
Режим : Joint stereo 
Идентификатор кодека : 55 
Идентификатор кодека/Подсказка : MP3 
Продолжительность : 46 м. 
Вид битрейта : Постоянный 
Битрейт : 256 Кбит/сек 
Каналы : 2 канала 
Частота : 44,1 КГц 
Метод сжатия : С потерями 
Размер потока : 85,0 Мбайт (11%) 
Выравнивание : Соединение по промежуткам 
Продолжительность промежутка : 26 мс. (0,65 видеокадр) 
Библиотека кодирования : LAME3.99.5

Кодек: XviD 
Качество: DVDRip 
Формат: AVI 
Видео: XviD, 2000 Кбит/с, 720x446 
Звук: MP3, 2 ch, 256 Кбит/с 

Трек-лист
01. Дилер 
02. Убийца 
03. Тишина 
04. Один на один 
05. Любовь 
06. Вера 
07. Я люблю людей 
08. Надежда 
09. Ласты 
10. Дверь 
11. Молоко 
12. Я буду жить

    


Рейтинг: 3/5 | Оценок: 1
ПОДЕЛИТЬСЯ
Реклама
Реклама
Рекомендуем к прочтению
Информация:
Уважаемый посетитель, Вы зашли на сайт как незарегистрированный пользователь.
Мы рекомендуем Вам зарегистрироваться либо войти на сайт под своим именем.
Всего комментариев: 0
Информация
Посетители, находящиеся в группе Гости, не могут оставлять комментарии к данной публикации.