×
Реклама
Присоединяйся
ТОП Пользователей
Реклама видна только незарегистрированным пользователям. Зарегистрироваться.
ВИА "Синяя птица" - Концерт в Самаре (2002) DVDRip-AVC
10-02-2013, 15:30
Alexey 0 4 646
ВИА "Синяя птица" - Концерт в Самаре (2002) DVDRip-AVC
Информация о фильме
Название: ВИА Синяя птица - Концерт в Самаре
Год выхода: 2002
Жанр: Концерт, Поп
В ролях: Дроздов Сергей, Ольга Максимова, Александр Дроздов, Александр Комаров, Валентин Барков, Алексей Комаров

О фильме:
"Живой" концерт ВИА "СИНЯЯ ПТИЦА" в Самарском Дворце спорта 8 марта 2002 года. История ВИА: В 1974 году в Горьковской филармонии работает музыкальный коллектив "Современник" под руководством Роберта и Михаила Болотных. В этот период в Москве на фирме "Мелодия" записывается материал на пластинку-миньон, куда входит песня "Клен". Роберт Болотный отправляется в г.Куйбышев, где встречается с директором Куйбышевской филармонии. 10 октября 1975 г коллектив "Современник" прилетает в Куйбышев для работы в Куйбышевской филармонии. С этого дня начинается творческая жизнь нового коллектива с новым названием, придуманным Робертом Болотным, ВИА "СИНЯЯ ПТИЦА". В конце 1975 года выходит долгожданная пластинка ВИА "Синяя птица" с песней "Клён", а 22 февраля 1976 года в городе Тольятти состоялся первый афишный концерт коллектива, который и определил день его рождения. Песни для своего репертуара писали сами музыканты или те из молодых композиторов (В.Добрынин, С.Дьячков, Ю.Антонов), которые понимали специфику жанра. Это, в итоге, и определило то "не общее выражение" лица "Синей птицы", которое выделяло коллектив из числа ему подобных. Сегодняшний репертуар ВИА "Синяя птица" - это незабываемые и всеми любимые хиты прошлых лет, а также новые песни, которые уже пришлись по вкусу не только "старым", но и молодым поклонникам коллектива. Кому-то из сегодняшних слушателей только предстоит открыть для себя этот ансамбль, а кому-то окунуться в слегка забытую, но такую близкую и любимую музыку 70-80-х.

Треклист:
Часть-1:
01. Ты мне не снишься
02. Я иду тебе навстречу
03. Пусть я ошибусь
04. Моя любовь жива
05. Горько
06. Интерлюдия 1(Сергей Дроздов)
07. Прости
08. Надо же
09. Интерлюдия 2(Александр Дроздов)
10. Марья
11. Слова
12. Мамина пластинка
13. Интерлюдия 3(Александр Комаров)
14. Так вот какая ты
15. Луна
16. Знаешь ты
17. Интерлюдия 4(Алексей Комаров)
18. Подорожник

Часть-2:
19. Снег и лед
20. Прощай, прощай
21. Город любви
22. Верю,что настанет день
23. Юля
24. Ну и пусть
25. Интерлюдия 5(Ольга Максимова)
26. Хочешь, я стану дождиком
27. В 7 часов у Никитских ворот
28. Интерлюдия 6(Валентин Барков)
29. Где-то далеко, далеко
30. Клен
31. В море ходят пароходы
32. Белый теплоход
33. Нам снова 25

Состав ВИА:
Сергей Дроздов — гитара, вокал
Александр Дроздов — гитара, вокал
Александр Комаров — гитара, вокал
Валентин Барков — бас-гитара, вокал
Алексей Комаров — ударные, вокал
Ольга Максимова — клавишные, вокал

MediaInfo:
Общее
Уникальный идентификатор : 178941716379514179537361234878922804149 (0x869EEBC5D6D0AF4484A614BFE350CBB5)
Полное имя : VIA.Siniaia.ptitca_Kontcert_v_Samare.2002.DVDRip.x264.drony.mkv
Формат : Matroska
Версия формата : Version 4 / Version 2
Размер файла : 2,15 Гбайт
Продолжительность : 2 ч. 8 м.
Режим общего битрейта : Переменный
Общий поток : 2397 Кбит/сек
Дата кодирования : UTC 2013-02-10 09:43:15
Программа кодирования : mkvmerge v6.0.0 ('Coming Up For Air') built on Jan 20 2013 09:52:00
Библиотека кодирования : libebml v1.3.0 + libmatroska v1.4.0

Видео
Идентификатор : 1
Формат : AVC
Формат/Информация : Advanced Video Codec
Профиль формата : High@L4.1
Параметр CABAC формата : Да
Параметр ReFrames формата : 3 кадра
Идентификатор кодека : V_MPEG4/ISO/AVC
Продолжительность : 2 ч. 8 м.
Вид битрейта : Переменный
Битрейт : 1500 Кбит/сек
Максимальный битрейт : 15,0 Мбит/сек
Ширина : 704 пикселя
Высота : 512 пикселей
Соотношение сторон : 1,375
Частота кадров : 25,000 кадров/сек
Цветовое пространство : YUV
Субдискретизация насыщенности : 4:2:0
Битовая глубина : 8 бит
Тип развёртки : Прогрессивная
Бит/(Пиксели*Кадры) : 0.166
Размер потока : 1,31 Гбайт (61%)
Заголовок : drony
Библиотека кодирования : x264 core 129 r2245 bc13772

Язык : English
Default : Да
Forced : Нет
Основные цвета : BT.709-5, BT.1361, IEC 61966-2-4, SMPTE RP177
Характеристики трансфера : BT.709-5, BT.1361
Коэффициенты матрицы : BT.709-5, BT.1361, IEC 61966-2-4 709, SMPTE RP177

Аудио #1
Идентификатор : 2
Формат : AC-3
Формат/Информация : Audio Coding 3
Расширение режима : CM (complete main)
Параметр Endianness формата : Big
Идентификатор кодека : A_AC3
Продолжительность : 2 ч. 8 м.
Вид битрейта : Постоянный
Битрейт : 448 Кбит/сек
Каналы : 2 канала
Расположение каналов : Front: L R
Частота : 48,0 КГц
Битовая глубина : 16 бит
Метод сжатия : С потерями
Задержка видео : 150 мс.
Размер потока : 412 Мбайт (19%)
Заголовок : AC3, 2 ch, 448 kbps, 48 kHz
Язык : Russian
Default : Да
Forced : Нет

Аудио #2
Идентификатор : 3
Формат : AC-3
Формат/Информация : Audio Coding 3
Расширение режима : CM (complete main)
Параметр Endianness формата : Big
Идентификатор кодека : A_AC3
Продолжительность : 2 ч. 8 м.
Вид битрейта : Постоянный
Битрейт : 448 Кбит/сек
Каналы : 6 каналов
Расположение каналов : Front: L C R, Side: L R, LFE
Частота : 48,0 КГц
Битовая глубина : 16 бит
Метод сжатия : С потерями
Задержка видео : 150 мс.
Размер потока : 412 Мбайт (19%)
Заголовок : AC3, 6 ch, 448 kbps, 48 kHz
Язык : Russian
Default : Нет
Forced : Нет

Меню
00:00:00.000 : en:01. Ты мне не снишься
00:03:47.960 : en:02. Я иду тебе навстречу
00:08:42.040 : en:03. Пусть я ошибусь
00:12:03.080 : en:04. Моя любовь жива
00:16:30.960 : en:05. Горько
00:19:38.960 : en:06. Интерлюдия 1(Сергей Дроздов)
00:20:01.720 : en:07. Прости
00:23:59.920 : en:08. Надо же
00:28:24.920 : en:09. Интерлюдия 2(Александр Дроздов)
00:29:15.040 : en:10. Марья
00:34:25.960 : en:11. Слова
00:38:48.760 : en:12. Мамина пластинка
00:42:15.160 : en:13. Интерлюдия 3 (Александр Комаров)
00:43:03.000 : en:14. Так вот какая ты
00:46:52.160 : en:15. Луна
00:52:01.760 : en:16. Знаешь ты
00:55:14.680 : en:17. Интерлюдия 4(Алексей Комаров)
00:55:45.000 : en:18. Подорожник
00:59:29.320 : en:19. Снег и лед
01:04:49.000 : en:20. Прощай, прощай
01:09:47.000 : en:21. Город любви
01:18:17.000 : en:22. Верю,что настанет день
01:24:31.720 : en:23. Юля
01:28:39.000 : en:24. Ну и пусть
01:33:17.000 : en:25. Интерлюдия 5 (Ольга Максимова)
01:33:44.000 : en:26. Хочешь, я стану дождиком
01:39:10.680 : en:27. В 7 часов у Никитских ворот
01:43:30.000 : en:28. Интерлюдия 6 (Валентин Барков)
01:44:03.000 : en:29. Где-то далеко, далеко
01:48:27.180 : en:30. Клен
01:53:53.280 : en:31. В море ходят пароходы
01:58:35.000 : en:32. Белый теплоход
02:03:12.000 : en:33. Нам снова 25

Страна: Россия
Студия: RDM
Продолжительность: 02:08:33

Файл
Кодек: MPEG-4 AVC/H.264
Качество: DVDRip
Видео: 704x512, ~1500 kbps, 25 fps
Аудиокодек: AC3 2.0, 5.1
Аудио #1: Русский, AC3, 2 ch, 448 kbps, 48 kHz
Аудио #2: Русский, AC3, 6 ch, 448 kbps, 48 kHz

Сохранены оригинальные чаптеры DVD

    
    


Рейтинг: 4.8/5 | Оценок: 10
ПОДЕЛИТЬСЯ
Реклама
Реклама
Рекомендуем к прочтению
Информация:
Уважаемый посетитель, Вы зашли на сайт как незарегистрированный пользователь.
Мы рекомендуем Вам зарегистрироваться либо войти на сайт под своим именем.
Всего комментариев: 0
Информация
Посетители, находящиеся в группе Гости, не могут оставлять комментарии к данной публикации.