×
Реклама
Присоединяйся
ТОП Пользователей
Реклама видна только незарегистрированным пользователям. Зарегистрироваться.
Сборник клипов - Мегамикс / Dj Vj Magrao Videomix (2011-2012) DVDRip
14-01-2013, 07:49
Alexey 1 9 765
Сборник клипов - Мегамикс / Dj Vj Magrao Videomix (2011-2012) DVDRip
ИНФОРМАЦИЯ О МЕГАМИКСЕ
Название: Мегамикс
Оригинальное название: Dj Vj Magrao Videomix 
Год выхода: 2011, 2012
Выпуск: 10,11,12
Жанр: Pop, Club, Dance, House, Video-Megamix

О фильме:
Сборник клипов от DJ VJ Magrao (настоящее имя- Luis Eduardo), известного бразильского диджея. 
Magrao - один из пионеров видеомикс-направления.
Отличительной чертой его миксов является присутствие юмора.
Приятного просмотра видеомиксов от Magrao!

Трейлер: Посмотреть

Страна: Бразилия
Продолжительность: 2011, V.10 - 01:09:13; 2012, V.11 - 01:29:54; 2012, V.12 - 00:58:07
Перевод: Оригинал (не требуется)

Файл
Кодек: H.264
Формат: AVI
Качество: DVDRip
Видео: 720х480, x264, AVC, (3:2), ~5 Mbps, 29.000 fps
Звук: AC3, 2ch, ~192 Kbps, 48000Hz
Размер: 2011, V.10 - 2.52 GB; 2012, V.11 - 3.27 GB; 2012, V.12 -2.13 GB
Сэмпл: Скачать
Дополнительная информация: 
Мегамикс - это видеосборник,составленный из небольших фрагментов клипов.
Видеомикс - довольно новое явление в современной музыкальной культуре,
насчитывает всего несколько лет,и все больше и больше приобретая популярность.
Разбивка по трекам отсутствует.

трек-лист 2011 и 2012
2011, v.10
01 - DJ VJ Magrão - Introdução 2011 Parte 2
02 - Adele - Rolling In The Deep
03 - Rihanna - California King Bed
04 - Flo Rida & Akon - Who Dat Girl
05 - DJ Antoine, Timati Feat.Kalenna - Welcome To St. Tropez
06 - Jean Roch, Flo Rida & Kat DeLuna - I'm Alright
07 - Far East Movement - Rocketeer
08 - Tiko's Groove & Gosha - I Don't Know What To Do
09 - Katy Perry - Last Friday Night (TGIF)
10 - Jessie J & B.O.B - Price Tag
11 - David Guetta, Taio Cruz & Ludacris - Little Bad Girl
(Swedish House Mafia & John Martin - Save The World)
12 - Alexandra Stan - Mr Saxobeat
13 - Stromae - Peace Or Violence
14 - Alex Gaudino & Kelly Rowland - What A Feeling
15 - Usher - More
16 - Britney Spears - Till The World Ends
17 - Martin Solveig & Dragonette - Hello
18 - Remady & Manu-L - The Way We Are
19 - Alexis Jordan - Happiness
20 - Lady GaGa - The Edge Of Glory
21 - Chris Brown & Benny Benassi - Beautiful People
22 - Black Eyed Peas - Don't Stop The Party
23 - Jason Derulowww.rutor.org - Don't Wanna Go Home
24 - Shakira & Pitbull - Rabiosa
25 - Desaparecidos - La Noche
26 - Stars On 45 - 45
27 - Bob Sinclar & Raffaella Carrà - Far L'Amore
28 - Alexandra Stan - Get Back (Asap)
29 - Inna & Flo Rida - Club Rocker
30 - Aqua - How R U Doin
31 - Michael Jackson - Hollywood Tonight
32 - Lady GaGa - Born This Way
33 - Kesha - Blow
34 - Remady Feat.Manu-L - Save Your Heart
35 - Rihanna - S&M
36 - Pitbull, Ne-Yo, Afrojack & Nayer - Give Me Everything
37 - Christopher S & Max Urban - Star
38 - Katy Perry - E.T.
39 - David Guetta & Snoop Dogg - Sweat
40 - Britney Spears - I Wanna Go
41 - Afrojack & Eva Simons - Take Over Control
42 - Enrique Iglesias - Tonight
43 - LMFAO, Lauren Bennett & GoonRock - Party Rock Anthem
44 - Jennifer Lopez & Pitbull - On The Floor
45 - Stereo Palma - Lick It
46 - Lady GaGa - Judas
47 - Cassey Doreen - Girls Just Want To Have Fun
48 - Milk & Sugar And Miriam Makeba - Hi-a Ma (Pata Pata)
49 - Jennifer Lopez Feat.Lil Wayne - I'm Into You
50 - Jay Frog - I Won't Let You Down

2012, V.11
Jason Derulo, 
Beyonce, 
Alexandra Stan,
Bruno Mars, Adele,
Dev, Maroon 5,
Britney Spears, 
Rihanna, 
Will I Am, 
Selena Gomez
DJ Bobo, 
Lady GaGa,
Madonna
And More...

2012, V.12
David Guetta,
Jessie J,Flo Rida,
Usher, Nicki Minaj, 
Rihanna, 
Jennifer Lopez, 
Pitbull, 
Madonna, 
Coldplay 
And More...

MediaInfo 2011 и 2012
2011, v.10
Общее
Полное имя :DJ VJ Magrao Videomix Volume 10 (2011).avi
Формат : AVI
Формат/Информация : Audio Video Interleave
Профиль формата : OpenDML
Размер файла : 2,52 Гбайт
Продолжительность : 1 ч. 9 м.
Общий поток : 5203 Кбит/сек
Программа кодирования : Lavf52.94.0

Видео
Идентификатор : 0
Формат : AVC
Формат/Информация : Advanced Video Codec
Профиль формата : High@L3.0
Параметр CABAC формата : Да
Параметр ReFrames формата : 2 кадра
Идентификатор кодека : H264
Продолжительность : 1 ч. 9 м.
Битрейт : 5000 Кбит/сек
Ширина : 720 пикселей
Высота : 480 пикселей
Соотношение сторон : 3:2
Режим частоты кадров : Переменный
Частота кадров : 29,970 кадров/сек
Стандарт вещания : NTSC
Цветовое пространство : YUV
Субдискретизация насыщенности : 4:2:0
Битовая глубина : 8 бит
Тип развёртки : Прогрессивная
Бит/(Пиксели*Кадры) : 0.483
Размер потока : 2,42 Гбайт (96%)
Библиотека кодирования : x264 core 112 r1834 a51816a

Аудио
Идентификатор : 1
Формат : AC-3
Формат/Информация : Audio Coding 3
Расширение режима : CM (complete main)
Параметр Endianness формата : Big
Идентификатор кодека : 2000
Продолжительность : 1 ч. 9 м.
Вид битрейта : Постоянный
Битрейт : 192 Кбит/сек
Каналы : 2 канала
Расположение каналов : Front: L R
Частота : 48,0 КГц
Битовая глубина : 16 бит
Метод сжатия : С потерями
Размер потока : 95,1 Мбайт (4%)
Выравнивание : Соединение по промежуткам
Продолжительность промежутка : 32 мс. (0,96 видеокадрwww.rutor.org)

2012, v.11
Общее
Полное имя : DJ_MAGRAO_VIDEOMIX_VOLUME_11_2012.avi
Формат : AVI
Формат/Информация : Audio Video Interleave
Профиль формата : OpenDML
Размер файла : 3,27 Гбайт
Продолжительность : 1 ч. 29 м.
Общий поток : 5202 Кбит/сек
Программа кодирования : Lavf52.94.0

Видео
Идентификатор : 0
Формат : AVC
Формат/Информация : Advanced Video Codec
Профиль формата : High@L3.0
Параметр CABAC формата : Да
Параметр ReFrames формата : 2 кадра
Идентификатор кодека : H264
Продолжительность : 1 ч. 29 м.
Битрейт : 5000 Кбит/сек
Ширина : 720 пикселей
Высота : 480 пикселей
Соотношение сторон : 3:2
Режим частоты кадров : Переменный
Частота кадров : 29,970 кадров/сек
Стандарт вещания : NTSC
Цветовое пространство : YUV
Субдискретизация насыщенности : 4:2:0
Битовая глубина : 8 бит
Тип развёртки : Прогрессивная
Бит/(Пиксели*Кадры) : 0.483
Размер потока : 3,14 Гбайт (96%)
Библиотека кодирования : x264 core 112 r1834 a51816a

Аудио
Идентификатор : 1
Формат : AC-3
Формат/Информация : Audio Coding 3
Расширение режима : CM (complete main)
Параметр Endianness формата : Big
Идентификатор кодека : 2000
Продолжительность : 1 ч. 29 м.
Вид битрейта : Постоянный
Битрейт : 192 Кбит/сек
Каналы : 2 канала
Расположение каналов : Front: L R
Частота : 48,0 КГц
Битовая глубина : 16 бит
Метод сжатия : С потерями
Размер потока : 123 Мбайт (4%)
Выравнивание : Соединение по промежуткам
Продолжительность промежутка : 32 мс. (0,96 видеокадрwww.rutor.org)

2012, v.12
Общее
Полное имя : DJ_MAGRAO_VIDEOMIX_VOLUME_12_2012.avi
Формат : AVI
Формат/Информация : Audio Video Interleave
Профиль формата : OpenDML
Размер файла : 2,13 Гбайт
Продолжительность : 58 м.
Общий поток : 5236 Кбит/сек
Программа кодирования : Lavf52.94.0

Видео
Идентификатор : 0
Формат : AVC
Формат/Информация : Advanced Video Codec
Профиль формата : High@L3.0
Параметр CABAC формата : Да
Параметр ReFrames формата : 2 кадра
Идентификатор кодека : H264
Продолжительность : 58 м.
Битрейт : 5000 Кбит/сек
Ширина : 720 пикселей
Высота : 480 пикселей
Соотношение сторон : 3:2
Режим частоты кадров : Переменный
Частота кадров : 29,970 кадров/сек
Стандарт вещания : NTSC
Цветовое пространство : YUV
Субдискретизация насыщенности : 4:2:0
Битовая глубина : 8 бит
Тип развёртки : Прогрессивная
Бит/(Пиксели*Кадры) : 0.483
Размер потока : 2,03 Гбайт (96%)
Библиотека кодирования : x264 core 112 r1834 a51816a

Аудио
Идентификатор : 1
Формат : AC-3
Формат/Информация : Audio Coding 3
Расширение режима : CM (complete main)
Параметр Endianness формата : Big
Идентификатор кодека : 2000
Продолжительность : 58 м.
Вид битрейта : Постоянный
Битрейт : 224 Кбит/сек
Каналы : 2 канала
Расположение каналов : Front: L R
Частота : 48,0 КГц
Битовая глубина : 16 бит
Метод сжатия : С потерями
Размер потока : 93,1 Мбайт (4%)
Выравнивание : Соединение по промежуткам
Продолжительность промежутка : 32 мс.

     


Рейтинг: 4.6/5 | Оценок: 5
ПОДЕЛИТЬСЯ
Реклама
Реклама
Рекомендуем к прочтению
Информация:
Уважаемый посетитель, Вы зашли на сайт как незарегистрированный пользователь.
Мы рекомендуем Вам зарегистрироваться либо войти на сайт под своим именем.
Всего комментариев: 1
Vladislav Chernyavsky написал(а) 4 августа 2015 19:18
Хорошо!
Информация
Посетители, находящиеся в группе Гости, не могут оставлять комментарии к данной публикации.